<?xml version="1.0" standalone="no"?>
<!DOCTYPE svg PUBLIC "-//W3C//DTD SVG 1.1//EN" "http://www.w3.org/Graphics/SVG/1.1/DTD/svg11.dtd" >
<svg xmlns="http://www.w3.org/2000/svg">
<metadata>
<json>
<![CDATA[
{
	"fontFamily": "oxpins-icon-two",
	"majorVersion": 1,
	"minorVersion": 0,
	"version": "Version 1.0",
	"fontId": "oxpins-icon-two",
	"psName": "oxpins-icon-two",
	"subFamily": "Regular",
	"fullName": "oxpins-icon-two",
	"description": "Font generated by IcoMoon."
}
]]>
</json>
</metadata>
<defs>
<font id="oxpins-icon-two" horiz-adv-x="1024">
<font-face units-per-em="1024" ascent="960" descent="-64" />
<missing-glyph horiz-adv-x="1024" />
<glyph unicode="&#x20;" horiz-adv-x="512" d="" />
<glyph unicode="&#xe900;" glyph-name="charity" data-tags="charity" d="M586.999 951.998c-29.129 0-54.844-11.268-74.999-32.724-20.156 21.456-45.87 32.724-74.999 32.724-58.878 0-105.001-46.188-105.001-105.152 0-62.354 51.442-102.432 122.636-157.902 12.341-9.614 25.098-19.553 38.625-30.374 5.477-4.383 12.109-6.574 18.739-6.574s13.263 2.191 18.739 6.574c13.527 10.82 26.284 20.76 38.625 30.374 71.195 55.47 122.636 95.548 122.636 157.902 0 58.964-46.123 105.152-105.001 105.152zM1.613 396.588c3.046-8.847 10.020-15.792 18.896-18.72l332.997-100.311c12.725-4.284 26.906 0.483 34.454 11.805l85.487 128.263c5.187 7.793 6.446 17.548 3.429 26.368-3.046 8.847-10.020 15.792-18.896 18.72l-332.996 100.311c-12.862 4.366-26.924-0.498-34.454-11.805l-85.488-128.263c-5.186-7.794-6.446-17.55-3.428-26.368zM1022.391 396.588c3.019 8.818 1.758 18.574-3.427 26.368l-85.489 128.263c-7.53 11.307-21.591 16.171-34.454 11.805l-332.996-100.311c-8.875-2.93-15.85-9.875-18.895-18.72-3.019-8.818-1.758-18.574 3.427-26.368l85.489-128.263c7.547-11.324 21.728-16.090 34.454-11.805l332.996 100.311c8.875 2.93 15.846 9.873 18.895 18.72zM482.002 322.266l-44.122-66.188c-22.789-34.084-65.239-48.266-103.506-35.389l-214.374 64.34v-199.415c0-12.921 8.262-24.376 20.508-28.448l341.492-113.162v378.264h0.002zM904.001 85.61v199.417l-216.103-64.896c-34.2-11.624-78.046 0.463-101.748 35.888l-44.15 66.248v-378.267l341.492 113.162c12.245 4.074 20.509 15.529 20.509 28.448zM654.59 680.156c-14.916-12.483-31.087-25.090-48.343-38.533-12.165-9.477-24.735-19.268-38.026-29.903-15.896-12.716-35.864-19.721-56.221-19.721s-40.323 7.004-56.221 19.722c-13.29 10.631-71.448 55.951-86.366 68.434l-202.946-67.057 308.913-92.969c14.159-4.654 26.547-12.404 36.559-22.32 9.834 9.847 21.861 17.457 35.279 21.879l310.25 93.431-202.877 67.034z" />
<glyph unicode="&#xe901;" horiz-adv-x="1038" d="M91.589 150.086h864.379v-66.981h-864.379v66.981z" />
<glyph unicode="&#xe902;" horiz-adv-x="1038" d="M192.891 812.89h661.8v-662.816h-661.8v662.816z" />
<glyph unicode="&#xe903;" horiz-adv-x="1038" d="M192.891 709.969h661.8v-89.579h-661.8v89.579z" />
<glyph unicode="&#xe904;" horiz-adv-x="1038" d="M284.644 514.525c0 16.151 13.754 29.244 30.72 29.244h194.57c16.966 0 30.72-13.093 30.72-29.244v-364.44h-256.010v364.44z" />
<glyph unicode="&#xe905;" horiz-adv-x="1038" d="M802.521 543.765h-99.728c-11 0-19.918-8.917-19.918-19.918v-0.010c0-10.999 8.917-19.916 19.918-19.916h99.728c10.999 0 19.916 8.917 19.916 19.916v0.010c0 11-8.917 19.918-19.916 19.918z" />
<glyph unicode="&#xe906;" horiz-adv-x="1038" d="M192.959 543.769h30.47c11.002 0 19.922-8.919 19.922-19.92 0-11-8.92-19.919-19.92-19.919h-30.472v39.839z" />
<glyph unicode="&#xe907;" horiz-adv-x="1038" d="M632.178 515.984v2.479c0 13.974-11.329 25.303-25.303 25.303s-25.304-11.329-25.304-25.303v-2.479c0-13.974 11.329-25.303 25.304-25.303s25.303 11.329 25.303 25.303z" />
<glyph unicode="&#xe908;" glyph-name="location-pin" data-tags="location-pin" d="M536.5 960c-101.802-0.135-199.395-40.635-271.38-112.62s-112.486-169.578-112.62-271.38c0-275.68 357.76-620.962 372.96-635.52 2.957-2.876 6.917-4.48 11.040-4.48s8.084 1.604 11.040 4.48c15.2 14.558 372.96 359.84 372.96 635.52-0.137 101.802-40.636 199.395-112.62 271.38s-169.578 112.485-271.38 112.62v0zM536.5 400c-34.809 0-68.838 10.322-97.78 29.661s-51.502 46.827-64.823 78.987c-13.321 32.16-16.806 67.547-10.016 101.687s23.554 65.501 48.167 90.115c24.614 24.614 55.974 41.376 90.115 48.167s69.528 3.306 101.687-10.016c32.16-13.321 59.647-35.879 78.987-64.823s29.661-62.971 29.661-97.78c-0.028-46.67-18.58-91.419-51.58-124.42s-77.751-51.552-124.42-51.58z" />
<glyph unicode="&#xe909;" glyph-name="marketing" data-tags="marketing" d="M404.369 183.777c-4.357-2.111-8.702-4.256-13.039-6.432l-92.281-53.279 119.975-119.977c11.684-11.684 30.742-11.684 42.426 0l40.091 40.091c11.684 11.684 11.684 30.74 0 42.426l-97.172 97.171zM987.426 551.992l-87.274 28.353c-12.585 4.094-26.107-2.792-30.199-15.377-4.093-12.587 2.794-26.109 15.38-30.201l87.274-28.355c12.585-4.093 26.105 2.794 30.199 15.379 4.093 12.587-2.794 26.109-15.38 30.201zM888.59 680.368l78.829 45.513c11.477 6.629 15.411 21.306 8.784 32.787-6.627 11.477-21.304 15.411-32.785 8.784l-78.829-45.515c-11.477-6.625-15.411-21.306-8.784-32.783 6.627-11.481 21.304-15.415 32.785-8.786zM755.948 881.68l-19.081-89.762c-2.748-12.945 5.518-25.67 18.464-28.418s25.67 5.518 28.418 18.464l19.082 89.76c2.748 12.948-5.519 25.672-18.464 28.42-12.948 2.748-25.672-5.518-28.419-18.464zM505.085 854.158c22.927 13.236 52.518 5.306 65.754-17.616l87.982-152.39 11.697 6.755c40.774 23.538 93.396 9.44 116.937-31.334 23.54-40.776 9.441-93.396-31.333-116.939l-11.699-6.753 89.503-155.020c13.235-22.926 5.308-52.518-17.618-65.754s-52.518-5.309-65.756 17.618l-263.086 455.68c-13.239 22.926-5.308 52.518 17.618 65.754zM58.249 238.561l-20.966 36.316c-35.646 61.74-14.296 141.418 47.444 177.065l91.56 52.861 171.554-297.139-91.559-52.862c-61.742-35.645-141.421-14.295-177.067 47.444l-20.966 36.316zM216.864 530.106l173.174-299.95c108.745 51.91 212.697 80.191 311.344 91.73l-249.405 431.986c-59.317-79.662-135.784-155.547-235.112-223.766z" />
<glyph unicode="&#xe90a;" horiz-adv-x="1039" d="M621.623 672.188c4.792 1.257 9.819 1.931 15.001 1.931s10.207-0.674 14.999-1.931v224.165c-10.014-0.568-20.036-1.516-30-2.822v-221.343z" />
<glyph unicode="&#xe90b;" horiz-adv-x="1039" d="M575.435 250.015v-6.448c0-22.417 12.058-42.006 30.039-52.662 6.171-3.658 11.224-8.94 14.811-15.154l16.347-28.313 16.345 28.313c3.588 6.214 8.64 11.496 14.812 15.154 17.979 10.656 30.037 30.245 30.037 52.662v6.448h-122.392z" />
<glyph unicode="&#xe90c;" horiz-adv-x="1039" d="M697.826 608.477v6.447c0 33.798-27.397 61.197-61.195 61.197s-61.197-27.399-61.197-61.197v-6.447h122.392z" />
<glyph unicode="&#xe90d;" horiz-adv-x="1039" d="M627.455 608.477v6.447c0 24.494 14.395 45.618 35.186 55.397-7.897 3.713-16.708 5.8-26.010 5.8-33.798 0-61.197-27.399-61.197-61.197v-6.447h52.021z" />
<glyph unicode="&#xe90e;" horiz-adv-x="1039" d="M627.457 243.567v6.448h-52.022v-6.448c0-22.417 12.058-42.006 30.039-52.662 6.171-3.658 11.224-8.94 14.811-15.154l16.347-28.313 16.345 28.313c2.53 4.381 5.8 8.284 9.664 11.496-1.616 1.345-3.326 2.579-5.148 3.658-17.978 10.657-30.036 30.245-30.036 52.662z" />
<glyph unicode="&#xe90f;" horiz-adv-x="1039" d="M782.339 534.206l2.698 2.001-87.214 74.27h-122.392l-87.214-74.27 2.682-2.001h291.439z" />
<glyph unicode="&#xe910;" horiz-adv-x="1039" d="M490.41 324.286l-2.192-1.999 87.214-74.273h122.392l87.214 74.273-2.204 1.999h-292.423z" />
<glyph unicode="&#xe911;" horiz-adv-x="1039" d="M696.563 534.206v2.001l-35.22 74.27h-49.428l-35.22-74.27v-2.001h119.867z" />
<glyph unicode="&#xe912;" horiz-adv-x="1039" d="M576.696 324.286v-1.999l35.22-74.273h49.428l35.22 74.273v1.999h-119.867z" />
<glyph unicode="&#xe913;" horiz-adv-x="1039" d="M488.218 536.206h296.819v-213.92h-296.819v213.92z" />
<glyph unicode="&#xe914;" horiz-adv-x="1039" d="M576.696 536.206h119.87v-213.92h-119.87v213.92z" />
<glyph unicode="&#xe915;" horiz-adv-x="1039" d="M488.218 536.206h53.404v-213.92h-53.404v213.92z" />
<glyph unicode="&#xe916;" horiz-adv-x="1039" d="M734.883 97.047c-219.050-33.642-423.897 116.659-457.542 335.707-33.758 219.798 116.139 423.958 335.957 457.582 54.578 8.348 108.268 5.278 158.646-7.426 7.058-1.78 10.946 7.896 4.602 11.464-96.17 54.096-210.46 77.634-327.972 59.682-278.966-42.616-471.535-304.842-428.695-583.774 42.92-279.453 304.256-471.2 583.708-428.28 171.214 26.296 309.488 134.588 381.056 278.795 3.21 6.47-5.446 12.298-10.23 6.888-59.956-67.804-143.071-115.825-239.528-130.639z" />
<glyph unicode="&#xe917;" horiz-adv-x="1039" d="M708.049 11.027c-279.451-42.92-540.785 148.826-583.707 428.278-27.89 181.589 44.016 356.076 174.556 467.519-194.386-96.438-313.658-311.017-279.020-536.541 42.92-279.453 304.256-471.2 583.709-428.281 97.568 14.986 184.43 56.608 254.356 116.32-46.056-22.84-96.364-39.075-149.893-47.295z" />
<glyph unicode="&#xe918;" horiz-adv-x="1039" d="M887.994 714.838c1.512 1.512 3.52 2.345 5.659 2.345s4.146-0.833 5.659-2.345l9.341-9.342v61.859c0 8.285-6.715 14.999-14.999 14.999s-14.999-6.714-14.999-14.999v-61.859l9.341 9.342z" />
<glyph unicode="&#xe919;" horiz-adv-x="1039" d="M845.633 661.158c-1.511 1.512-2.343 3.52-2.343 5.656s0.833 4.145 2.343 5.656l9.344 9.345h-61.86c-8.284 0-15.001-6.714-15.001-15.001 0-8.285 6.717-14.999 15.001-14.999h61.86l-9.344 9.344z" />
<glyph unicode="&#xe91a;" horiz-adv-x="1039" d="M994.193 681.815h-61.86l9.345-9.345c1.509-1.511 2.342-3.519 2.342-5.656s-0.833-4.143-2.342-5.656l-9.345-9.344h61.86c8.284 0 15.001 6.714 15.001 14.999 0 8.287-6.717 15.001-15.001 15.001z" />
<glyph unicode="&#xe91b;" horiz-adv-x="1039" d="M899.311 618.79c-1.512-1.512-3.52-2.343-5.659-2.343s-4.146 0.831-5.659 2.343l-9.341 9.342v-61.857c0-8.287 6.715-15.001 14.999-15.001s14.999 6.714 14.999 15.001v61.857l-9.341-9.342z" />
<glyph unicode="&#xe91c;" horiz-adv-x="1039" d="M943.098 659.744l-42.368-42.367c-3.906-3.906-10.237-3.906-14.143 0l-42.367 42.367c-3.906 3.906-3.906 10.237 0 14.143l42.367 42.367c3.906 3.906 10.237 3.906 14.143 0l42.368-42.367c3.903-3.906 3.903-10.239 0-14.143z" />
<glyph unicode="&#xe91d;" horiz-adv-x="1039" d="M889.955 666.814l30.106 30.106-19.331 19.333c-3.906 3.906-10.237 3.906-14.143 0l-42.367-42.368c-3.906-3.906-3.906-10.236 0-14.142l42.367-42.368c3.906-3.906 10.237-3.906 14.143 0l19.331 19.331-30.106 30.109z" />
<glyph unicode="&#xe91e;" horiz-adv-x="1039" d="M326.879 346.962c1.512 1.512 3.52 2.343 5.657 2.343 2.139 0 4.146-0.831 5.659-2.343l9.342-9.342v61.859c0 8.285-6.717 14.999-15.001 14.999s-14.999-6.714-14.999-14.999v-61.859l9.342 9.342z" />
<glyph unicode="&#xe91f;" horiz-adv-x="1039" d="M284.515 293.283c-3.121 3.121-3.121 8.196 0 11.314l9.344 9.344h-61.859c-8.284 0-14.999-6.714-14.999-15.001 0-8.285 6.715-14.999 14.999-14.999h61.856l-9.341 9.342z" />
<glyph unicode="&#xe920;" horiz-adv-x="1039" d="M338.195 250.914c-1.511-1.509-3.52-2.342-5.659-2.342-2.137 0-4.145 0.833-5.657 2.342l-9.342 9.342v-61.859c0-8.285 6.715-14.999 14.999-14.999s15.001 6.714 15.001 14.999v61.859l-9.342-9.342z" />
<glyph unicode="&#xe921;" horiz-adv-x="1039" d="M433.078 313.941h-61.86l9.344-9.344c1.509-1.512 2.342-3.52 2.342-5.657 0-2.136-0.833-4.145-2.342-5.657l-9.342-9.342h61.859c8.284 0 14.999 6.714 14.999 14.999 0 8.287-6.715 15.001-14.999 15.001z" />
<glyph unicode="&#xe922;" horiz-adv-x="1039" d="M381.982 291.868l-42.368-42.368c-3.906-3.906-10.236-3.906-14.142 0l-42.368 42.368c-3.906 3.906-3.906 10.237 0 14.142l42.368 42.368c3.906 3.906 10.236 3.906 14.142 0l42.368-42.368c3.906-3.905 3.906-10.236 0-14.142z" />
<glyph unicode="&#xe923;" horiz-adv-x="1039" d="M327.768 298.938l30.641 30.641-18.796 18.797c-3.906 3.906-10.236 3.906-14.142 0l-42.368-42.368c-3.906-3.906-3.906-10.236 0-14.142l42.368-42.368c3.906-3.906 10.236-3.906 14.142 0l18.796 18.796-30.641 30.644z" />
<glyph unicode="&#xe924;" horiz-adv-x="1039" d="M992.744 431.827l-36.788-36.788c-1.622-1.622-1.622-4.25 0-5.872l36.788-36.787c1.622-1.622 4.249-1.622 5.871 0l36.788 36.787c1.622 1.622 1.622 4.25 0 5.872l-36.788 36.788c-1.622 1.622-4.252 1.622-5.871 0z" />
<glyph unicode="&#xe925;" horiz-adv-x="1039" d="M462.149 702.059l-36.788-36.788c-1.621-1.622-1.621-4.25 0-5.872l36.788-36.788c1.622-1.622 4.25-1.622 5.872 0l36.788 36.788c1.622 1.622 1.622 4.25 0 5.872l-36.788 36.788c-1.621 1.622-4.25 1.622-5.872 0z" />
<glyph unicode="&#xe926;" horiz-adv-x="1039" d="M885.432 273.543h-18.064v18.064c0 8.285-6.715 14.999-14.999 14.999s-15.001-6.714-15.001-14.999v-18.064h-18.064c-8.284 0-14.999-6.714-14.999-15.001 0-8.285 6.715-14.999 14.999-14.999h18.064v-18.064c0-8.287 6.717-15.001 15.001-15.001s14.999 6.714 14.999 15.001v18.064h18.064c8.284 0 15.001 6.714 15.001 14.999 0 8.287-6.717 15.001-15.001 15.001z" />
<glyph unicode="&#xe927;" horiz-adv-x="1037" d="M562.281 791.998l-116.001-25.999c0 0-1.799 23.4-13.799 47.599-12 24.201-26.2 136.401 80.8 136.401s116.4-63.4 112-82.8l-62.999-75.2z" />
<glyph unicode="&#xe928;" horiz-adv-x="1037" d="M306.679-8.602c-47.6 7.801-94.4-45.399-144.401-45.399v27l22 4c0 0 9 23.999 37.999 39 29 15 39 77.999 69.001 81.999 29.999 4 60.2-24.599 60.2-24.599l-44.799-82z" />
<glyph unicode="&#xe929;" horiz-adv-x="1037" d="M625.279 867.199l-10.8-47.599 18.4-48.601-29-1.199-17-47.8h-24.601l-50.6 25.399-13.4-46.6-70.999 11.2 19 54 53 26.4c0 0-14.6 24-5.001 46.6s31.6 19.6 35.8-1.6l53.2 12.6 42.001 17.2z" />
<glyph unicode="&#xe92a;" horiz-adv-x="1037" d="M625.274 867.998h-200.401c2.401 38.6 22 82 88.601 82 105.399 0 115.8-61.6 111.8-82z" />
<glyph unicode="&#xe92b;" horiz-adv-x="1037" d="M536.076 646.198c-17 31-37.8 54.4-37.8 54.4l-71.001 11.199c-124.2-104.799-165-490.4-75.799-638.399-56.801-61.8-49.2-127.401-49.2-127.401s362.6 0 446.6 0c83.999 0 137.4 41.401 137.4 120.001 0 106.6-250.801 123.799-273.4 166.6-34.601 65.4-59.8 382.6-76.8 413.6z" />
<glyph unicode="&#xe92c;" horiz-adv-x="1037" d="M486.285 268.599c38.799 0 75.999 7.999 109.2 19.199-9.001 39.2-17.001 91.2-24.601 143.4l-202 89.4c0 0-14.599-252 117.401-252z" />
<glyph unicode="&#xe92d;" horiz-adv-x="1037" d="M671.478 497.199l58.201 75.799 0.599 68.401-11 35.6-17-7.001-2-44-21.4 6-31.399-32.001-9.2-44.399 33.2-58.4z" />
<glyph unicode="&#xe92e;" horiz-adv-x="1037" d="M690.974 629.479l18.44-7.76-22.038-52.369-18.44 7.76 22.038 52.369z" />
<glyph unicode="&#xe92f;" horiz-adv-x="1037" d="M351.483 73.399c-16.4-17.801-27.4-36.001-34.8-52.801 89.001-47.599 260.201-52 342.2-52 85.4 0 90.001 52 90.001 52-109.2 0-326.6-4-397.4 52.801z" />
<glyph unicode="&#xe930;" horiz-adv-x="1037" d="M368.873 520.598c0 0 30.599-174.999 105.401-174.999 74.8 0 217.999 114.999 217.999 114.999l-54.4 95-120.399-65.199c0 0-18.401 106.6-42.4 148.2-24 41.599-52.801 33.399-52.801 33.399l-53.4-151.4z" />
<glyph unicode="&#xe931;" horiz-adv-x="1037" d="M562.284 721.998l-57.001 44.001-6 26.4-31.599-87 30.599-4.8 13.4 46.799 50.6-25.4z" />
<glyph unicode="&#xe932;" horiz-adv-x="1037" d="M587.072 815.998c-0.999 0-2 0.2-2.999 0.6-7.2 2.6-8.401 13.4-8.6 15.4-0.2 2.2 1.4 4.2 3.6 4.2 2.201 0.2 4.201-1.4 4.201-3.6 0.2-3.6 1.799-8 3.199-8.6 0.6-0.2 3.001 0.399 6.801 4.6 1.6 1.6 3.999 1.8 5.6 0.2s1.799-4 0.2-5.6c-1.6-2-6.399-7.2-12-7.2z" />
<glyph unicode="&#xe933;" d="M737.089 167.876h174.268v-95.055h-174.268v95.055z" />
<glyph unicode="&#xe934;" d="M847.994 104.506h-665.383v855.492h665.383c34.853 0 63.37-28.516 63.37-63.37v-728.752c0-34.853-28.518-63.37-63.37-63.37z" />
<glyph unicode="&#xe935;" d="M182.608 959.998c-34.853 0-63.369-28.516-63.369-63.37v-855.491h63.369v918.861z" />
<glyph unicode="&#xe936;" d="M182.608-22.233h665.383c34.853 0 63.369 28.516 63.369 63.37v63.369h-728.752c-34.853 0-63.369-28.516-63.369-63.369s28.516-63.37 63.369-63.37z" />
<glyph unicode="&#xe937;" d="M847.997 231.247v602.012c-34.853 0-63.369 28.516-63.369 63.37h-475.274c0-34.853-28.516-63.37-63.37-63.37v-602.012c34.854 0 63.37-28.516 63.37-63.37h475.274c0 34.854 28.516 63.37 63.369 63.37z" />
<glyph unicode="&#xe938;" d="M721.251 453.041l57.034 57.032c12.673 12.675 12.673 31.684 0 44.359l-57.034 57.032v63.37c0 17.426-14.258 31.684-31.684 31.684h-63.37l-57.032 57.034c-12.675 12.673-31.684 12.673-44.359 0l-57.032-57.034h-63.37c-17.426 0-31.684-14.258-31.684-31.684v-63.37l-57.034-57.032c-12.673-12.675-12.673-31.684 0-44.359l57.034-57.032v-63.37c0-17.426 14.258-31.684 31.684-31.684h63.37l57.032-57.034c12.675-12.673 31.684-12.673 44.359 0l57.032 57.034h63.37c17.426 0 31.684 14.258 31.684 31.684v63.37z" />
<glyph unicode="&#xe939;" d="M642.036 25.296h205.952v31.684h-205.952c-9.505 0-15.841-6.337-15.841-15.841 0-9.506 6.337-15.843 15.841-15.843z" />
<glyph unicode="&#xe93a;" d="M847.985 56.98c0 0 47.527 0 63.37 47.527v-47.527c0 0-15.843-31.684-63.37-31.684v31.684z" />
<glyph unicode="&#xe93b;" d="M182.604 25.296h348.533c9.506 0 15.843 6.337 15.843 15.843s-6.337 15.841-15.843 15.841h-348.533c-9.505 0-15.843-6.337-15.843-15.841 0-9.506 6.338-15.843 15.843-15.843z" />
<glyph unicode="&#xe93c;" d="M309.353 41.137v-95.055l-47.527 31.684-47.527-31.684v95.055h95.055z" />
<glyph unicode="&#xe93d;" horiz-adv-x="991" d="M639.96 808.050l-131.554 131.555c-7.132 7.13-18.69 7.13-25.821 0l-131.554-131.555c-11.502-11.502-3.356-31.169 12.909-31.169h27.119c10.085 0 18.257-8.174 18.257-18.258v-532.468h172.356v532.468c0 10.084 8.172 18.258 18.257 18.258h27.119c16.268 0 24.414 19.666 12.912 31.169z" />
<glyph unicode="&#xe93e;" horiz-adv-x="991" d="M639.964 808.050l-131.554 131.553c-7.132 7.13-18.69 7.13-25.821 0l-16.998-16.997 95.381-95.379c18.577-18.579 5.421-50.346-20.853-50.346-10.085 0-18.257-8.174-18.257-18.258v-230.398c0-11.013-8.929-19.938-19.942-19.938h-92.596v-282.132h172.352v532.468c0 10.084 8.175 18.258 18.257 18.258h27.119c16.268 0 24.414 19.666 12.912 31.169z" />
<glyph unicode="&#xe93f;" horiz-adv-x="991" d="M346.604 657.636l-104.996 104.992c-5.69 5.69-14.917 5.69-20.607 0l-104.994-104.992c-9.18-9.18-2.679-24.875 10.305-24.875h21.644c8.048 0 14.572-6.526 14.572-14.573v-305.327h137.555v305.33c0 8.047 6.525 14.571 14.572 14.571h21.646c12.978-0.002 19.482 15.695 10.303 24.873z" />
<glyph unicode="&#xe940;" horiz-adv-x="991" d="M874.988 657.636l-104.993 104.992c-5.691 5.69-14.917 5.69-20.606 0l-104.996-104.992c-9.18-9.18-2.679-24.875 10.306-24.875h21.643c8.050 0 14.574-6.526 14.574-14.573v-305.327h137.553v305.33c0 8.047 6.527 14.571 14.574 14.571h21.643c12.982-0.002 19.486 15.695 10.303 24.873z" />
<glyph unicode="&#xe941;" horiz-adv-x="991" d="M874.978 657.635l-104.993 104.992c-5.691 5.69-14.917 5.69-20.609 0l-19.601-19.604 70.081-70.084c14.828-14.828 4.327-40.181-16.642-40.181-8.047 0-14.574-6.523-14.574-14.573v-87.968c0-11.013-8.925-19.942-19.938-19.942h-57.8v-197.417h137.556v305.33c0 8.050 6.524 14.574 14.571 14.574h21.646c12.982-0.002 19.482 15.695 10.303 24.873z" />
<glyph unicode="&#xe942;" horiz-adv-x="991" d="M346.591 657.635l-104.995 104.992c-5.69 5.69-14.917 5.69-20.607 0l-19.605-19.604 70.084-70.084c14.826-14.828 4.326-40.181-16.643-40.181-8.048 0-14.572-6.523-14.572-14.573v-89.963c0-11.013-8.926-19.938-19.939-19.938h-57.798v-195.425h137.555v305.33c0 8.050 6.525 14.574 14.572 14.574h21.645c12.982-0.002 19.482 15.695 10.303 24.873z" />
<glyph unicode="&#xe943;" horiz-adv-x="991" d="M929.875-41.512l-36.402-4.506h-795.977l-36.317 18.795c-33.037 0-46.759 15.040-46.759 48.078l-14.419 30.621v309.466l12.505 36.068c0 33.036 13.908 52.459 46.943 52.459l38.048 8.972h795.977l37.68-8.975c33.036 0 48.29-17.765 48.29-50.8l11.525-37.723v-309.463l-8.427-38.347c0-33.039-19.628-54.645-52.667-54.645z" />
<glyph unicode="&#xe944;" horiz-adv-x="991" d="M931.14 454.425l-37.68 4.013h-22.138c33.039 0 59.818-26.779 59.818-59.815v-384.823c0-33.036-26.783-59.815-59.818-59.815h22.138l36.405 4.502c33.039 0 52.667 21.606 52.667 54.645l8.427 38.344v309.466l-8.156 36.167c0 33.036-18.627 57.314-51.662 57.314z" />
<glyph unicode="&#xe945;" horiz-adv-x="991" d="M495.5 36.841c93.541 0 169.37 75.829 169.37 169.37s-75.829 169.37-169.37 169.37c-93.541 0-169.371-75.829-169.371-169.37s75.831-169.37 169.371-169.37z" />
<glyph unicode="&#xe946;" horiz-adv-x="991" d="M518.696 221.164h-46.381c-1.007 0-1.827 0.823-1.827 1.827v46.384c0 1.004 0.819 1.827 1.827 1.827h63.161c8.261 0 14.954 6.696 14.954 14.954s-6.692 14.954-14.954 14.954h-25.015v11.591c0 8.258-6.696 14.954-14.954 14.954-8.261 0-14.954-6.696-14.954-14.954v-11.591h-8.238c-17.5 0-31.734-14.237-31.734-31.734v-46.384c0-17.497 14.237-31.734 31.734-31.734h46.381c1.007 0 1.827-0.819 1.827-1.827v-46.381c0-1.007-0.819-1.827-1.827-1.827h-63.161c-8.258 0-14.954-6.696-14.954-14.954 0-8.261 6.696-14.954 14.954-14.954h25.019v-11.591c0-8.261 6.692-14.954 14.954-14.954 8.258 0 14.954 6.692 14.954 14.954v11.591h8.235c17.5 0 31.734 14.234 31.734 31.734v46.381c0 17.5-14.234 31.734-31.734 31.734z" />
<glyph unicode="&#xe947;" horiz-adv-x="991" d="M931.163 454.425l-37.68 4.013c-7.961-11.363-12.645-25.187-12.645-40.114 0-38.674 31.351-70.028 70.025-70.028 14.927 0 28.755 4.687 40.118 12.645l-8.152 36.17c-0.003 33.036-18.63 57.314-51.666 57.314z" />
<glyph unicode="&#xe948;" horiz-adv-x="991" d="M931.143 351.116c6.25-1.833 12.859-2.818 19.704-2.818 14.924 0 28.751 4.687 40.114 12.645v37.677c0 33.036-26.779 59.818-59.815 59.818h-37.68c-0.776-1.11-1.493-2.263-2.21-3.416 23.238-8.209 39.886-30.357 39.886-56.403v-47.504z" />
<glyph unicode="&#xe949;" horiz-adv-x="991" d="M59.818 458.438h37.68c7.961-11.363 12.644-25.187 12.644-40.114 0-38.674-31.351-70.028-70.026-70.028-14.926 0-28.753 4.687-40.117 12.645v37.68c0.002 33.039 26.783 59.818 59.818 59.818z" />
<glyph unicode="&#xe94a;" horiz-adv-x="991" d="M929.888-41.515l-36.405-4.502c-7.961 11.363-12.645 25.187-12.645 40.118 0 38.671 31.351 70.025 70.025 70.025 14.927 0 28.755-4.687 40.118-12.645l-8.318-34.71c-0.003-33.039-19.74-58.285-52.776-58.285z" />
<glyph unicode="&#xe94b;" horiz-adv-x="991" d="M59.818-46.017h37.68c7.961 11.363 12.644 25.187 12.644 40.118 0 38.671-31.351 70.025-70.026 70.025-14.926 0-28.753-4.687-40.117-12.645v-37.68c0.002-33.036 26.783-59.818 59.818-59.818z" />
<glyph unicode="&#xe94c;" horiz-adv-x="991" d="M796.573 161.349c24.777 0 44.861 20.084 44.861 44.861s-20.084 44.864-44.861 44.864c-24.777 0-44.864-20.087-44.864-44.864s20.087-44.861 44.864-44.861z" />
<glyph unicode="&#xe94d;" horiz-adv-x="991" d="M194.411 161.349c24.777 0 44.862 20.084 44.862 44.861s-20.086 44.864-44.862 44.864c-24.777 0-44.863-20.087-44.863-44.864s20.086-44.861 44.863-44.861z" />
<glyph unicode="&#xe94e;" horiz-adv-x="991" d="M931.143 61.308c6.25 1.83 12.859 2.814 19.704 2.814 14.924 0 28.751-4.684 40.114-12.645v-37.68c0-33.036-26.779-59.815-59.815-59.815h-37.68c-0.776 1.11-1.493 2.259-2.21 3.412 23.238 8.212 39.886 30.36 39.886 56.403v47.51z" />
<glyph unicode="&#xe94f;" glyph-name="start-up" data-tags="start-up" d="M149.486 303.843c-5.797-11.563-3.539-25.539 5.594-34.679l7.336-7.337c21.196 25.117 45.898 52.376 75.859 82.328 2.118 2.118 4.297 3.142 6.422 5.094l-47.194 47.203c-27.438-49.625-43.438-83.531-48.016-92.609zM407.979 174.45c-30.031-30.031-57.219-54.781-82.195-75.991l9.936-9.938c9.219-9.219 23.328-11.438 34.93-5.468 15.539 8.008 39.977 19.507 91.851 48.398l-49.422 49.422c-1.952-2.132-2.976-4.304-5.101-6.422zM391.991 328.124c-21.68 21.68-82.647 2.243-111.288-26.39-95.812-95.812-139.086-163.743-158.516-203.853-5.57-11.491-3.25-25.25 5.781-34.28 9.047-9.056 22.828-11.353 34.328-5.782 39.21 19.040 106.313 62.109 203.265 159.055 31.493 31.508 47.032 90.641 26.453 111.227l-0.024 0.024zM93.639 560.579l-84.852-84.852c-9.594-9.593-11.562-24.445-4.766-36.21 6.633-11.609 20.523-17.524 33.742-13.984 45.859 12.297 86.211 17.492 113.383 10.523 38.657 68.727 80.195 131.992 124.188 189.46-25.446 16.312-109.532 7.228-181.696-64.937zM507.793-60.783c11.554-5.844 25.547-3.586 34.695 5.571l84.859 84.852c65.696 65.71 77.259 150.492 62.351 177.376-64.092-48.305-129.022-89.095-189.6-123.244 4.18-23.601 1.398-46.5-8.484-113.374-1.93-12.945 4.756-25.469 16.179-31.181zM595.598 659.062c-35.086-35.094-35.086-92.18 0-127.275 35.094-35.092 92.187-35.092 127.281 0 35.094 35.094 35.094 92.18 0 127.275-35.094 35.092-92.187 35.092-127.281 0zM1022.237 930.733c-1.079 14.836-12.89 26.562-27.679 27.672-73.68 5.547-147.070-3.516-219.008-25.516 5.414-49.422 30.976-102.906 74.617-146.548 44.163-44.155 99.101-69.711 149.405-74.491 19.376 67.898 28.563 140.617 22.665 218.882zM807.745 743.912c-49.922 49.922-80.406 109.797-90.187 168.094-180.149-73.883-352.601-235.226-488.875-461.883l67.703-67.703c46.257 18.782 102.414 23.743 138.032-11.866 35.663-35.671 30.609-91.805 11.836-137.999l69.929-69.931c174.391 105.102 377.423 270.688 463.758 490.993-59.718 9.023-121.462 39.562-172.196 90.296zM765.309 489.358c-58.477-58.476-153.641-58.476-212.125 0-58.484 58.484-58.484 153.656 0 212.134 58.484 58.476 153.648 58.476 212.125 0 58.484-58.484 58.484-153.649 0-212.134z" />
<glyph unicode="&#xe950;" glyph-name="time" data-tags="time" d="M512-64c282.697 0 512 229.303 512 512s-229.303 512-512 512c-282.697 0-512-229.303-512-512s229.303-512 512-512zM475.428 740.571c0 20.115 16.457 36.572 36.572 36.572s36.572-16.457 36.572-36.572v-275.017l169.143-135.315c15.726-12.617 18.284-35.656 5.667-51.382-7.132-8.96-17.737-13.714-28.526-13.714-8.046 0-16.092 2.562-22.856 8.046l-182.857 146.284c-8.595 6.95-13.714 17.37-13.714 28.526v292.571h-0.003z" />
<glyph unicode="&#xe951;" horiz-adv-x="991" d="M492.706 18.594c-8.066 0-14.713 6.421-14.944 14.534-0.235 8.255 6.266 15.135 14.521 15.37 8.271 0.377 15.221-6.028 15.585-14.283 0.37-8.248-6.042-15.234-14.3-15.598l-0.429-0.013c-0.145-0.010-0.287-0.010-0.433-0.010zM432.571 20.847c-0.588 0-1.173 0.033-1.767 0.099l-0.040 0.010c-8.218 0.823-14.168 8.142-13.345 16.367 0.826 8.218 8.205 14.197 16.414 13.381l0.462-0.046c8.202-0.968 14.072-8.4 13.104-16.602-0.892-7.614-7.35-13.21-14.828-13.21zM552.709 25.461c-7.003 0-13.256 4.935-14.653 12.067-1.602 8.103 3.673 15.968 11.779 17.563l0.277 0.053c8.113 1.549 15.948-3.776 17.497-11.885 1.549-8.106-3.766-15.948-11.878-17.497l-0.112-0.023c-0.984-0.188-1.952-0.277-2.91-0.277zM373.238 32.243c-1.301 0-2.626 0.172-3.947 0.529l-0.083 0.023c-7.977 2.124-12.741 10.313-10.623 18.287 2.117 7.984 10.296 12.741 18.273 10.633l0.311-0.086c7.967-2.177 12.665-10.395 10.484-18.363-1.813-6.653-7.839-11.023-14.415-11.023zM610.984 41.436c-6.118 0-11.849 3.766-14.062 9.844-2.821 7.766 1.186 16.344 8.942 19.165l0.251 0.083c7.763 2.791 16.331-1.239 19.126-9.011 2.798-7.772-1.245-16.338-9.018-19.136l-0.129-0.046c-1.695-0.611-3.419-0.898-5.11-0.898zM316.276 52.64c-2.041 0-4.113 0.423-6.101 1.321l-0.204 0.092c-7.523 3.409-10.857 12.271-7.447 19.793s12.263 10.858 19.793 7.449c7.53-3.402 10.955-12.295 7.561-19.826-2.503-5.54-7.916-8.83-13.601-8.83zM666.069 66.15c-5.351 0-10.517 2.874-13.21 7.915-3.891 7.29-1.133 16.354 6.157 20.242 7.234 3.977 16.328 1.338 20.315-5.9 3.977-7.234 1.344-16.331-5.9-20.305l-0.34-0.192c-2.243-1.192-4.648-1.761-7.023-1.761zM801.894 199.835l0.096-0.069-1.579 1.126 1.483-1.057zM111.561 265.021c-5.905 0-11.5 3.525-13.866 9.328l-0.038 0.109c-3.153 7.634 0.484 16.381 8.112 19.529 7.636 3.151 16.383-0.486 19.529-8.113l0.106-0.264c3.115-7.654-0.574-16.377-8.226-19.486-1.837-0.747-3.75-1.103-5.617-1.103zM853.881 293.72c-1.566 0-3.161 0.251-4.734 0.773-7.779 2.593-12.014 10.97-9.513 18.766 2.444 7.855 10.775 12.291 18.647 9.903 7.898-2.405 12.361-10.729 9.972-18.62l-0.192-0.591c-2.084-6.266-7.921-10.23-14.181-10.23zM93.273 322.593c-6.767 0-12.898 4.621-14.539 11.485l-0.046 0.198c-1.913 8.037 3.039 16.103 11.076 18.022 8.037 1.922 16.104-3.039 18.017-11.076l0.045-0.195c1.92-8.030-3.039-16.097-11.068-18.019-1.172-0.277-2.336-0.416-3.485-0.416zM867.632 352.54c-0.862 0-1.731 0.076-2.616 0.235-8.073 1.424-13.487 9.090-12.156 17.157 1.255 8.126 8.836 13.735 16.972 12.542 8.166-1.209 13.814-8.777 12.612-16.952l-0.099-0.618c-1.278-7.251-7.591-12.364-14.713-12.364zM84.041 382.322c-7.674 0-14.199 5.853-14.879 13.632l-0.045 0.618c-0.484 8.251 5.806 15.32 14.055 15.809 8.173 0.499 15.227-5.721 15.794-13.887 0.658-8.195-5.421-15.416-13.624-16.12-0.439-0.036-0.869-0.053-1.3-0.053zM872.213 412.774c-8.265 0-14.954 6.692-14.954 14.957v0.195c0 0.106 0 0.211 0 0.311 0 0.129 0 0.264 0 0.393v0.198c0 8.261 6.689 14.96 14.954 14.96 8.255 0 14.954-6.699 14.954-14.96v-0.198c0-0.106 0-0.211-0.007-0.311 0.007-0.129 0.007-0.258 0.007-0.393v-0.195c0-8.265-6.689-14.957-14.954-14.957zM84.003 442.702c-0.431 0-0.869 0.020-1.308 0.059-8.218 0.71-14.304 7.938-13.609 16.149 0.575 8.166 7.56 14.386 15.794 13.874 8.248-0.486 14.539-7.561 14.055-15.803l-0.053-0.621c-0.673-7.786-7.205-13.659-14.879-13.659zM867.52 473.894c-7.122 0-13.428 5.103-14.706 12.361l-0.106 0.621c-1.196 8.172 4.453 15.773 12.625 16.975 8.129 1.199 15.74-4.433 16.959-12.582 1.321-8.060-4.083-15.71-12.159-17.14-0.875-0.159-1.754-0.235-2.613-0.235zM93.076 502.414c-1.149 0-2.321 0.135-3.485 0.416-8.022 1.913-12.981 9.963-11.084 17.986 1.769 7.974 9.639 13.071 17.661 11.393 8.082-1.695 13.268-9.619 11.575-17.699l-0.136-0.614c-1.633-6.864-7.765-11.482-14.531-11.482zM853.795 532.625c-6.289 0-12.162 4.020-14.257 10.303l-0.168 0.522c-2.434 7.895 1.998 16.265 9.896 18.69 7.901 2.434 16.255-1.995 18.69-9.896l0.010-0.023c2.606-7.839-1.648-16.222-9.49-18.832-1.543-0.522-3.122-0.763-4.681-0.763zM111.206 560.075c-1.875 0-3.78 0.357-5.625 1.107-7.651 3.105-11.333 11.832-8.226 19.482l0.076 0.182c3.107 7.65 11.825 11.34 19.483 8.232 7.651-3.105 11.333-11.832 8.226-19.482l-0.076-0.188c-2.359-5.807-7.954-9.332-13.858-9.332zM831.115 588.641c-5.444 0-10.706 2.986-13.368 8.142l-0.225 0.436c-3.647 7.419-0.591 16.377 6.824 20.021 7.409 3.643 16.371 0.591 20.021-6.818l0.010-0.033c3.792-7.333 0.882-16.298-6.458-20.087-2.177-1.126-4.506-1.662-6.805-1.662zM137.985 614.255c-2.654 0-5.345 0.704-7.772 2.193-7.039 4.288-9.269 13.457-5.013 20.496 4.12 7.039 13.155 9.489 20.277 5.451 7.183-4.075 9.708-13.2 5.64-20.385-0.113-0.195-0.235-0.393-0.355-0.588-2.812-4.621-7.734-7.168-12.777-7.168zM800.064 640.52c-4.786 0-9.497 2.298-12.384 6.555-4.803 6.721-3.207 15.998 3.521 20.799 6.715 4.801 16.103 3.175 20.906-3.546l0.317-0.454c4.634-6.835 2.857-16.134-3.977-20.776-2.57-1.746-5.49-2.578-8.384-2.578zM172.733 663.693c-3.372 0-6.751 1.134-9.549 3.448-6.351 5.277-7.228 14.705-1.951 21.064l0.128 0.151c5.277 6.358 14.698 7.228 21.056 1.958 6.358-5.277 7.235-14.705 1.958-21.064l-0.128-0.151c-2.956-3.569-7.22-5.406-11.515-5.406zM761.536 687.047c-3.931 0-7.855 1.535-10.788 4.597-5.784 5.897-5.701 15.385 0.205 21.169 5.89 5.776 15.347 5.693 21.124-0.204l0.248-0.249c5.724-5.958 5.526-15.431-0.429-21.147-2.904-2.79-6.633-4.166-10.359-4.166zM214.588 707.272c-4.143 0-8.256 1.701-11.212 5.043-5.474 6.185-4.892 15.635 1.293 21.109l0.060 0.053c6.147 5.497 15.605 4.997 21.116-1.149 5.504-6.139 5.020-15.567-1.111-21.086l-0.242-0.219c-2.85-2.517-6.388-3.75-9.904-3.75zM716.377 727.193c-3.069 0-6.154 0.937-8.823 2.888l-0.509 0.386c-6.517 5.073-7.697 14.463-2.623 20.988 5.067 6.51 14.435 7.689 20.952 2.646 6.53-4.907 7.921-14.176 3.082-20.784-2.933-4.007-7.475-6.124-12.080-6.124zM262.552 743.985c-4.937 0-9.768 2.442-12.619 6.91-4.438 6.956-2.404 16.179 4.529 20.632 6.82 4.506 16.021 2.699 20.617-4.082 4.642-6.835 2.858-16.134-3.977-20.769l-0.522-0.348c-2.487-1.588-5.27-2.344-8.029-2.344zM665.607 760.021c-2.359 0-4.753 0.559-6.983 1.746l-0.357 0.197c-7.234 3.977-9.873 13.072-5.896 20.307s13.071 9.874 20.305 5.897l0.046-0.022c7.221-3.939 9.949-13.004 6.048-20.247-2.705-5.020-7.848-7.878-13.163-7.878zM315.543 772.957c-5.701 0-11.152 3.274-13.647 8.8-3.402 7.523-0.061 16.376 7.462 19.778l0.348 0.151c7.56 3.319 16.376-0.136 19.695-7.704 3.303-7.568-0.144-16.383-7.712-19.695-1.996-0.899-4.090-1.331-6.147-1.331z" />
<glyph unicode="&#xe952;" horiz-adv-x="991" d="M593.253 137.612l-225.158 225.158c-14.115 14.108-14.131 36.94-0.040 51.025 5.566 5.566 12.523 8.939 19.75 10.078 11.029 1.777 22.739-1.586 31.278-10.121l-57.982 57.982c-7.049 7.046-10.587 16.285-10.587 25.501 0 1.919 0.152 3.848 0.462 5.767 1.156 7.244 4.512 14.184 10.085 19.757 5.513 5.51 12.347 8.853 19.482 10.039 9.718 1.619 19.955-0.747 28.11-7.105l-22.059 22.062c-7.056 7.052-10.593 16.315-10.593 25.537-0.017 1.959 0.159 3.931 0.482 5.86 1.159 7.198 4.506 14.101 10.048 19.641 5.573 5.573 12.519 8.945 19.786 10.088 11.023 1.777 22.743-1.595 31.272-10.124l25.266-25.266c-8.512 8.512-11.902 20.245-10.124 31.268 1.143 7.237 4.499 14.177 10.085 19.757 14.072 14.070 36.927 14.055 51.028-0.046l146.323-146.326 0.41 0.585c7.416 7.416 16.156 12.684 25.478 15.829 23.007 7.759 49.492 2.458 67.848-15.905l68.225-68.225c13.117-13.111 20.473-30.879 20.506-49.403l0.036-42.684c0.017-19.945 7.954-39.080 22.085-53.212l15.211-15.211-174.021-174.021-19.446 19.446c-12.929 12.929-30.129 20.715-48.356 21.91-16.936 1.113-32.88 8.347-44.894 20.361z" />
<glyph unicode="&#xe953;" horiz-adv-x="991" d="M694.652 64.591l197.523 197.526c6.511 6.511 17.058 6.511 23.565 0l70.345-70.342c6.507-6.511 6.507-17.064 0-23.565l-197.52-197.526c-6.507-6.511-17.064-6.511-23.565 0l-70.349 70.342c-6.504 6.511-6.504 17.064 0 23.565z" />
<glyph unicode="&#xe954;" horiz-adv-x="991" d="M897.414 173.456c5.843-5.843 15.304-5.85 21.131-0.023 5.83 5.83 5.824 15.294-0.013 21.131-5.843 5.847-15.304 5.853-21.131 0.023-5.83-5.837-5.824-15.294 0.013-21.131z" />
<glyph unicode="&#xe955;" horiz-adv-x="991" d="M710.577 427.768l-50.384 50.377 0.41 0.581c7.416 7.416 16.156 12.684 25.478 15.832l45.644-45.644c5.837-5.837 5.837-15.31 0-21.147-5.853-5.85-15.31-5.837-21.147 0z" />
<glyph unicode="&#xe956;" horiz-adv-x="991" d="M397.715 137.589l225.161 225.158c14.115 14.115 14.128 36.94 0.043 51.025-5.573 5.573-12.519 8.945-19.753 10.088-11.033 1.777-22.743-1.595-31.278-10.124l57.982 57.975c7.046 7.046 10.584 16.285 10.584 25.508 0 1.913-0.152 3.848-0.462 5.761-1.156 7.251-4.512 14.184-10.085 19.757-5.51 5.51-12.347 8.853-19.482 10.039-9.715 1.619-19.951-0.747-28.11-7.105l22.062 22.069c7.052 7.046 10.59 16.308 10.59 25.531 0.017 1.965-0.159 3.941-0.482 5.867-1.15 7.191-4.506 14.101-10.048 19.644-5.573 5.563-12.519 8.935-19.786 10.078-11.023 1.777-22.739-1.589-31.268-10.124l-25.266-25.266c8.512 8.519 11.898 20.245 10.121 31.278-1.14 7.227-4.499 14.168-10.085 19.753-14.072 14.071-36.927 14.056-51.025-0.043l-146.326-146.326-0.41 0.575c-7.415 7.416-16.155 12.684-25.477 15.832-23.014 7.756-49.491 2.454-67.848-15.902l-68.225-68.231c-13.117-13.111-20.474-30.879-20.504-49.4l-0.045-42.681c-0.008-19.951-7.946-39.087-22.077-53.218l-15.212-15.211 174.020-174.021 19.445 19.446c12.928 12.929 30.129 20.718 48.356 21.91 16.936 1.113 32.88 8.347 44.894 20.361z" />
<glyph unicode="&#xe957;" horiz-adv-x="991" d="M296.316 64.578l-197.525 197.516c-6.51 6.511-17.057 6.511-23.566 0l-70.343-70.342c-6.51-6.507-6.51-17.055 0-23.565l197.517-197.526c6.51-6.507 17.064-6.507 23.573 0l70.343 70.345c6.51 6.507 6.51 17.061 0 23.572z" />
<glyph unicode="&#xe958;" horiz-adv-x="991" d="M228.917 38.086c5.844 5.843 5.852 15.304 0.022 21.131-5.829 5.837-15.295 5.83-21.131-0.013-5.844-5.837-5.852-15.304-0.023-21.134 5.837-5.827 15.295-5.82 21.132 0.017z" />
<glyph unicode="&#xe959;" horiz-adv-x="991" d="M280.403 427.745l50.376 50.384-0.41 0.575c-7.416 7.416-16.156 12.684-25.478 15.832l-45.643-45.637c-5.836-5.837-5.836-15.317 0-21.154 5.852-5.85 15.31-5.837 21.154 0z" />
<glyph unicode="&#xe95a;" horiz-adv-x="991" d="M639.495 677.204v-318.424c0-19.961-16.126-36.111-36.048-36.111-7.878 0-15.175 2.534-21.101 6.844-9.051 6.54-14.954 17.207-14.954 29.267v-81.993c0-9.966-4.030-19-10.547-25.517-1.354-1.361-2.837-2.616-4.41-3.749-5.943-4.311-13.216-6.844-21.094-6.844-7.792 0-15 2.474-20.88 6.676-8.014 5.724-13.58 14.637-14.848 24.913v-31.209c0-9.972-4.053-19.023-10.57-25.541-1.377-1.397-2.897-2.676-4.482-3.812-5.906-4.271-13.163-6.782-21.005-6.782-7.868 0-15.172 2.534-21.114 6.857-9.051 6.54-14.957 17.21-14.957 29.276v35.731c0-12.047-5.896-22.729-14.954-29.267-5.919-4.311-13.2-6.844-21.094-6.844-19.905 0-36.055 16.173-36.055 36.111v206.937l-0.697-0.122c-10.484 0-20.397 2.458-29.213 6.821-21.751 10.788-36.729 33.257-36.729 59.22v96.494c0 18.538 7.356 36.305 20.436 49.43l30.153 30.204c14.098 14.123 22.016 33.259 22.016 53.241v21.517h246.094v-27.497c0-18.281 6.659-35.95 18.703-49.687 11.191-12.762 17.352-29.153 17.352-46.141z" />
<glyph unicode="&#xe95b;" horiz-adv-x="991" d="M622.919 413.772c-5.573 5.573-12.519 8.939-19.753 10.088-11.033 1.777-22.743-1.595-31.278-10.131l57.982 57.982c7.046 7.046 10.59 16.285 10.59 25.501 0 1.919-0.159 3.855-0.469 5.767-1.156 7.251-4.506 14.184-10.078 19.757-5.51 5.51-12.351 8.853-19.482 10.039-9.715 1.619-19.951-0.747-28.117-7.105l22.069 22.069c7.046 7.046 10.584 16.308 10.584 25.531 0.017 1.959-0.149 3.934-0.476 5.867-1.156 7.191-4.512 14.101-10.055 19.644-5.563 5.563-12.519 8.935-19.776 10.078-11.023 1.777-22.749-1.595-31.278-10.124l-25.266-25.266c8.512 8.519 11.898 20.245 10.121 31.278-1.14 7.227-4.499 14.168-10.078 19.753-14.075 14.071-36.933 14.056-51.032-0.043l-146.326-146.326-0.41 0.575c-7.415 7.416-16.155 12.684-25.477 15.832-11.038 3.719-22.87 4.407-34.234 2.114 9.148-13.827 21.94-25.296 37.53-33.029 4.325-2.14 8.755-3.941 13.276-5.391v-181.446c0-36.402 29.593-66.018 65.958-66.018 4.377 0 8.687 0.426 12.883 1.255 4.694-9.593 11.697-18.039 20.52-24.411 5.473-3.994 11.446-7.046 17.728-9.163l184.303 184.3c14.115 14.115 14.128 36.94 0.043 51.025z" />
<glyph unicode="&#xe95c;" horiz-adv-x="991" d="M669.385 358.78v127.346c-3.092-2.167-6.038-4.641-8.806-7.399l-0.41-0.585-146.323 146.326c-14.101 14.101-36.956 14.116-51.028 0.046-5.586-5.579-8.942-12.519-10.085-19.757-1.777-11.023 1.612-22.756 10.124-31.268l-25.266 25.266c-8.529 8.529-20.249 11.902-31.272 10.124-7.264-1.143-14.214-4.516-19.786-10.088-5.54-5.54-8.899-12.443-10.055-19.641-0.317-1.929-0.492-3.901-0.476-5.86 0-9.223 3.538-18.485 10.593-25.537l22.059-22.062c-8.166 6.359-18.392 8.724-28.107 7.105-7.138-1.186-13.973-4.529-19.486-10.039-5.573-5.573-8.929-12.513-10.085-19.757-0.311-1.919-0.469-3.848-0.462-5.767-0.007-9.226 3.541-18.455 10.587-25.501l57.982-57.982c-8.529 8.526-20.249 11.898-31.272 10.121-7.234-1.14-14.191-4.512-19.757-10.078-14.085-14.092-14.068-36.917 0.040-51.032l150.839-150.832c4.053-0.773 8.195-1.166 12.39-1.166 13.979 0 27.347 4.334 38.598 12.493 2.864 2.071 5.579 4.377 8.060 6.857 12.45 12.45 19.307 29.022 19.307 46.668v16.255c2.028-0.188 4.083-0.277 6.141-0.277 36.365 0 65.956 29.613 65.956 66.018z" />
<glyph unicode="&#xe95d;" horiz-adv-x="991" d="M639.495 677.204v-318.424c0-19.961-16.126-36.111-36.048-36.111-0.538 0-1.12 0-1.695 0.040-7.204 0.34-13.88 2.788-19.36 6.782-0.023 0-0.023 0.023-0.046 0.023-9.051 6.54-14.954 17.207-14.954 29.267v-81.993c0-9.966-4.030-19-10.547-25.517-1.354-1.361-2.837-2.616-4.41-3.749-5.943-4.311-13.216-6.844-21.094-6.844-7.792 0-15 2.474-20.88 6.676-8.014 5.724-13.58 14.637-14.848 24.913v-31.209c0-9.972-4.053-19.023-10.57-25.541-1.377-1.397-2.897-2.676-4.482-3.812-5.906-4.271-13.163-6.782-21.005-6.782-7.868 0-15.172 2.534-21.114 6.857-9.051 6.54-14.957 17.21-14.957 29.276v35.731c0-12.047-5.896-22.729-14.954-29.267-5.919-4.311-13.2-6.844-21.094-6.844-19.905 0-36.055 16.173-36.055 36.111v206.937l-0.697-0.122c-10.484 0-20.397 2.458-29.213 6.821-21.751 10.788-36.729 33.257-36.729 59.22v96.494c0 18.538 7.356 36.305 20.436 49.43l30.153 30.204c8.717 8.732 15.076 19.385 18.643 30.991 2.236 7.175 3.373 14.735 3.373 22.251v21.517h246.094v-27.497c0-6.162 0.664-12.664 2.372-18.599 2.874-11.431 8.463-22.099 16.331-31.089 11.092-12.664 17.352-29.274 17.352-46.141z" />
<glyph unicode="&#xe95e;" horiz-adv-x="991" d="M639.488 677.204v-318.424c0-19.961-16.126-36.111-36.048-36.111-0.535 0-1.116 0-1.691 0.040-7.208 0.34-13.883 2.788-19.364 6.782l0.611 306.834c0 1.852-0.416 4.786-1.192 8.513-13.761 67.024-70.329 111.926-138.742 111.926h-89.095c2.24 7.182 3.373 14.735 3.373 22.251v21.517h246.094v-27.497c0-6.162 0.664-12.664 2.375-18.599 2.871-11.431 8.46-22.099 16.331-31.089 11.089-12.664 17.349-29.274 17.349-46.141z" />
<glyph unicode="&#xe95f;" horiz-adv-x="991" d="M619.428 800.523h-279.344c-9.203 0-16.664 7.462-16.664 16.663v99.489c0 9.201 7.461 16.663 16.664 16.663h279.344c9.199 0 16.661-7.462 16.661-16.663v-99.489c0-9.201-7.462-16.663-16.661-16.663z" />
<glyph unicode="&#xe960;" horiz-adv-x="991" d="M402.379 866.926c0 8.264-6.682 14.955-14.931 14.955s-14.934-6.691-14.934-14.955c0-8.256 6.686-14.954 14.934-14.954s14.931 6.698 14.931 14.954z" />
<glyph unicode="&#xe961;" horiz-adv-x="991" d="M582.369 525.421v-195.908c-9.057 6.54-14.964 17.207-14.964 29.273v-81.993c0-9.972-4.020-19.007-10.547-25.524-1.351-1.361-2.828-2.616-4.407-3.752v277.904c0 8.255 6.706 14.954 14.954 14.954 8.258 0 14.964-6.699 14.964-14.954z" />
<glyph unicode="&#xe962;" horiz-adv-x="991" d="M510.457 525.421v-278.062c-8.020 5.724-13.58 14.64-14.855 24.906v-31.209c0-9.966-4.046-19.023-10.57-25.541-1.377-1.401-2.89-2.669-4.482-3.812v313.717c0 8.255 6.696 14.954 14.954 14.954 8.255 0 14.954-6.699 14.954-14.954z" />
<glyph unicode="&#xe963;" horiz-adv-x="991" d="M438.457 525.421v-313.631c-9.051 6.537-14.954 17.207-14.954 29.267v35.738c0-12.044-5.896-22.736-14.954-29.276v277.904c0 8.255 6.706 14.954 14.954 14.954 8.278 0 14.954-6.699 14.954-14.954z" />
<glyph unicode="&#xe964;" horiz-adv-x="991" d="M351.394 554.972v-71.247l-0.704-0.116c-10.488 0-20.398 2.451-29.206 6.811v64.552c0 8.258 6.699 14.957 14.953 14.957 8.271 0 14.957-6.699 14.957-14.957z" />
<glyph unicode="&#xe965;" glyph-name="voluntary-work" data-tags="voluntary-work" d="M511.99 602.040l174.259 343.322c-25.68-15.998-89.615-49.544-174.261-49.544-84.675 0-148.628 33.572-174.254 49.536l174.256-343.314zM263.014 960h-87.561v-310.554c0-59.636-27.010-111.046-115.854-136.694v-251.035h317.696v-179.999h-317.696v-145.719h422.392v592.579l-218.977 431.421zM377.296 371.591h-228.852v60h228.852v-60zM59.6 201.719h257.697v-60.001h-257.697v60.001zM706.683 201.721h257.696v-60h-257.696v60zM964.391 261.721v251.032c0 0-36.855 12.626-44.213 16.582 3.741-31.449-7.078-53.606-22.441-74.424-21.857-29.614-119.738-114.741-119.738-114.741s-97.886 85.127-119.735 114.739c-15.363 20.809-22.83 42.353-22.83 65.853 0 55.306 44.995 100.303 100.301 100.303 14.575 0 29.065-3.267 42.264-9.39 13.201 6.124 27.692 9.39 42.269 9.39 11.37 0 22.292-1.929 32.49-5.431-2.755 10.86-4.221 22.192-4.221 33.811v310.555h-87.557l-218.981-431.421v-592.579h422.391v145.72h-317.696v180h317.696zM860.568 520.765c0 22.221-18.080 40.301-40.303 40.301-8.66 0-17.263-2.886-24.219-8.124l-18.048-13.592-18.046 13.59c-6.958 5.239-15.558 8.124-24.216 8.124-22.223 0-40.303-18.080-40.303-40.303 0-10.641 3.323-19.68 11.107-30.223l0.005-0.007c11.537-15.631 46.476-48.205 71.456-70.627 24.979 22.422 59.923 54.997 71.462 70.632 7.782 10.549 11.105 19.593 11.105 30.228z" />
<glyph unicode="&#xe966;" horiz-adv-x="1041" d="M908 478.397c-17.599 11.199-39.999 7.999-55.999-6.4l-262.4-264.001 64-64 262.4 262.4c22.4 20.801 17.599 56.001-8.001 72.001z" />
<glyph unicode="&#xe967;" horiz-adv-x="1041" d="M888.8 388.797c0-108.8-87.999-196.799-196.799-196.799h-214.4c-108.8 0-196.801 87.999-196.801 196.799 0 8.001 0 17.601 1.601 25.6 3.2 28.8 14.399 56.001 30.399 81.601l176 272h192l176-270.401c12.8-20.799 22.4-41.6 27.201-65.599 3.2-14.401 4.799-28.8 4.799-43.201z" />
<glyph unicode="&#xe968;" horiz-adv-x="1041" d="M888.8 388.797c0-108.8-87.999-196.799-196.799-196.799h-214.4c-108.8 0-196.801 87.999-196.801 196.799 0 8.001 0 17.601 1.601 25.6h67.2c48 0 94.399-12.8 135.999-36.799 32-17.601 67.2-27.201 104.001-27.201h16c55.999 0 103.999-36.799 121.6-86.4l156.8 168.001c3.2-14.401 4.799-28.8 4.799-43.201z" />
<glyph unicode="&#xe969;" horiz-adv-x="1041" d="M184.8 383.997h164.801c41.6 0 83.2-11.199 119.999-32 36.801-20.799 78.401-32 120.001-32h16c52.799 0 96-43.199 96-96 0-17.599-14.401-32-32-32h32l231.999 244.801c22.4 23.999 59.201 23.999 83.2 1.599 20.801-20.799 22.4-55.999 3.2-78.399l-289.599-328.001c-17.601-20.799-44.8-32-72.001-32h-473.6v384z" />
<glyph unicode="&#xe96a;" horiz-adv-x="1041" d="M397.6 191.998h304v32h-304c-9.6 0-16-6.4-16-16s7.999-16 16-16z" />
<glyph unicode="&#xe96b;" horiz-adv-x="1041" d="M200.8-64.002h-160c-17.6 0-32 14.399-32 32v448c0 17.599 14.4 32 32 32h160c17.601 0 32-14.401 32-32v-448c0-17.601-14.399-32-32-32z" />
<glyph unicode="&#xe96c;" horiz-adv-x="1041" d="M488.801 767.998l-35.2 107.2c-14.401 41.6 16 84.8 59.199 84.8 24.001 0 46.401-14.4 57.6-35.2l14.401-28.8 14.399 28.8c11.201 20.8 33.601 35.2 57.6 35.2 43.201 0 73.6-43.2 60.8-84.8l-36.799-107.2h-192z" />
<glyph unicode="&#xe96d;" horiz-adv-x="1041" d="M696.8 735.998h-224c-17.599 0-32 14.399-32 32 0 17.599 14.401 32 32 32h224c17.601 0 32-14.401 32-32 0-17.601-14.399-32-32-32z" />
<glyph unicode="&#xe96e;" horiz-adv-x="1041" d="M592.8 527.998h-16c-12.8 0-24.001 11.199-24.001 23.999s11.201 24.001 24.001 24.001h23.999c9.6 0 16-6.4 16-16s6.4-16 16-16c9.6 0 16 6.4 16 16 0 27.199-20.799 48-48 48v16c0 9.6-6.4 16-16 16s-16-6.4-16-16v-17.601c-27.199-3.2-48-27.199-48-54.4 0-30.399 25.6-55.999 56.001-55.999h16c12.8 0 23.999-11.201 23.999-24.001s-11.199-23.999-23.999-23.999h-24.001c-9.6 0-16 6.4-16 16s-6.4 16-16 16c-9.6 0-16-6.4-16-16 0-27.201 20.801-48 48-48v-16c0-9.6 6.4-16 16-16s16 6.4 16 16v17.599c27.201 3.2 48 27.201 48 54.4 0 30.401-25.6 56.001-55.999 56.001z" />
<glyph unicode="&#xe96f;" glyph-name="check-up" data-tags="check-up" d="M399.129 702.927h224.938c27.748 0 50.328 22.579 50.328 50.33v110.335h-39.993c-13.498 55.265-63.437 96.398-122.796 96.398-59.367 0-109.304-41.133-122.804-96.398h-40.002v-110.335c0-27.75 22.579-50.33 50.33-50.33zM545.862 383.719v98.531h-68.53v-98.531c0-16.57-13.431-30.001-30.001-30.001h-98.531v-68.53h98.531c16.57 0 30.001-13.439 30.001-30.001v-98.531h68.53v98.531c0 16.562 13.439 30.001 30.001 30.001h98.54v68.53h-98.54c-16.562 0-30.001 13.431-30.001 30.001zM816.88 863.59h-82.469v-110.336c0-60.836-49.492-110.328-110.328-110.328h-224.938c-60.836 0-110.328 49.492-110.328 110.328v110.336h-82.469c-60.836 0-110.328-49.5-110.328-110.336v-706.931c0-60.844 49.492-110.336 110.328-110.336h610.531c60.844 0 110.336 49.492 110.336 110.336v706.931c0 60.836-49.5 110.336-110.336 110.336zM734.419 255.191c0-16.57-13.431-29.999-30.001-29.999h-98.537v-98.531c0-16.57-13.431-30.001-30.001-30.001h-128.53c-16.57 0-30.001 13.431-30.001 30.001v98.531h-98.531c-16.57 0-29.999 13.429-29.999 29.999v128.532c0 16.57 13.429 29.999 29.999 29.999h98.531v98.531c0 16.57 13.431 29.999 30.001 29.999h128.53c16.57 0 30.001-13.429 30.001-29.999v-98.531h98.537c16.57 0 30.001-13.429 30.001-29.999v-128.532z" />
<glyph unicode="&#xe970;" glyph-name="envelop" data-tags="envelop" d="M42.353 744.943c129.729-109.867 357.363-303.155 424.268-363.422 8.981-8.134 18.615-12.27 28.615-12.27 9.98 0 19.597 4.097 28.558 12.192 66.963 60.327 294.595 253.634 424.327 363.5 8.074 6.827 9.311 18.827 2.773 27.174-15.116 19.287-37.66 30.345-61.81 30.345h-787.693c-24.153 0-46.693-11.058-61.808-30.347-6.539-8.345-5.308-20.345 2.769-27.172zM956.424 685.404c-6.979 3.249-15.195 2.116-21-2.847-143.864-121.96-327.482-278.289-385.252-330.345-32.424-29.269-77.424-29.269-109.924 0.039-61.576 55.48-267.77 230.769-385.211 330.309-5.847 4.962-14.077 6.057-21 2.847-6.96-3.233-11.422-10.194-11.422-17.867v-495.231c0-43.444 35.326-78.77 78.77-78.77h787.691c43.441 0 78.769 35.326 78.769 78.77v495.231c0 7.673-4.458 14.653-11.422 17.865z" />
<glyph unicode="&#xe971;" glyph-name="health-insurance" data-tags="health-insurance" d="M511.407 928.085c-2.311-0.121-4.571-0.714-6.626-1.785 0 0-190.015-94.781-426.968-126.374-7.961-1.101-13.871-7.933-13.812-15.969v-335.876c0-205.759 112.65-327.813 223.718-395.688 111.069-67.875 221.908-84.219 221.908-84.219 1.573-0.242 3.174-0.242 4.75 0 0 0 110.836 16.344 221.905 84.219s223.718 189.929 223.718 395.688v335.876c0.067 8.036-5.851 14.87-13.812 15.969-236.954 31.594-426.968 126.374-426.968 126.374-2.411 1.246-5.099 1.863-7.813 1.785zM512 736.021c158.867 0 287.937-129.068 287.937-287.935 0-158.869-129.071-288.095-287.937-288.095-158.869 0-287.938 129.226-287.938 288.095 0 158.867 129.069 287.935 287.938 287.935zM447.967 592.051v-80.093h-79.937c-8.837 0.033-16.028-7.101-16.063-15.937v-96.030c0.033-8.837 7.226-15.972 16.063-15.937h79.937v-80.095c0.033-8.848 7.247-15.988 16.095-15.937h95.874c8.837-0.030 16.026 7.103 16.063 15.937v80.095h79.967c8.837-0.033 16.028 7.101 16.063 15.937v96.030c-0.033 8.837-7.226 15.972-16.063 15.937h-79.967v80.093c-0.033 8.837-7.226 15.972-16.063 15.939h-96.703c-9.025-0.805-15.274-7.703-15.267-15.939z" />
<glyph unicode="&#xe972;" glyph-name="hospice" data-tags="hospice" d="M744.467 349.133h222.748v-31.706h-222.748v31.706zM947.853 941.61h-125.815v-40.492h125.815v40.492zM917.158 779.328v92.296h-64.425v-41.46l64.425-50.836zM508.619 687.791l186.34 147.030c5.35 4.234 12.913 4.234 18.266 0l223.797-176.566h85.978l-318.918 251.606-225.525-177.935c13.062-12.177 23.407-27.219 30.063-44.134zM395.994 780.276c47.966 0 87.006 39.040 87.006 87.052 0 47.966-39.040 86.984-87.006 86.984-47.987 0-87.051-39.018-87.051-86.984 0-48.012 39.063-87.052 87.051-87.052zM438.042 173.619c0-115.767-94.191-209.958-209.978-209.958-115.744 0-209.894 94.191-209.894 209.958 0 115.765 94.15 209.916 209.894 209.916 115.787 0 209.978-94.15 209.978-209.916zM70.564 188.388h87.304c1.876 8.87 5.372 17.105 10.154 24.437l-61.706 61.707c-19.804-23.849-32.738-53.574-35.752-86.144zM106.294 72.706l61.728 61.728c-4.804 7.332-8.3 15.59-10.154 24.437h-87.304c3.014-32.57 15.948-62.317 35.73-86.165zM213.318 103.36c-8.87 1.877-17.128 5.372-24.46 10.197l-61.706-61.707c23.848-19.825 53.596-32.759 86.166-35.772v87.281zM213.318 331.119c-32.548-3.012-62.276-15.949-86.124-35.753l61.686-61.685c7.332 4.781 15.568 8.279 24.438 10.153v87.285zM242.831 243.836c8.849-1.875 17.107-5.35 24.439-10.153l61.707 61.705c-23.849 19.782-53.574 32.719-86.146 35.731v-87.283zM328.998 51.851l-61.685 61.685c-7.33-4.804-15.612-8.299-24.48-10.176v-87.281c32.57 3.012 62.317 15.947 86.165 35.772zM385.628 158.871h-87.281c-1.854-8.868-5.372-17.126-10.176-24.48l61.685-61.685c19.802 23.849 32.757 53.596 35.772 86.165zM385.628 188.388c-3.012 32.57-15.97 62.295-35.793 86.144l-61.687-61.685c4.826-7.332 8.322-15.59 10.197-24.461l87.283 0.002zM131.506 613.15c6.806 0 12.31 5.504 12.31 12.311v11.767h27.64c23.090 0 41.86-18.793 41.86-41.862v-182.78c4.866 0.316 9.796 0.463 14.748 0.463 4.973 0 9.879-0.147 14.767-0.463v182.782c0 39.354-32.021 71.356-71.375 71.356h-27.64v11.829c0 6.807-5.504 12.311-12.31 12.311h-91.624c-21.438 0-38.882-17.446-38.882-38.882 0-21.421 17.446-38.831 38.882-38.831l91.624-0.002zM805.965 106.688c0-14.601-11.863-26.46-26.441-26.46h-1.075c-14.409 9.481-31.644 14.999-50.118 14.999-18.498 0-35.731-5.519-50.14-14.999h-37.459v265.154c0 8.154-6.615 14.748-14.748 14.748h-30.547c-7.817 19.089-26.566 32.55-48.412 32.55h-30.044v-29.493h30.044c12.574 0 22.816-10.261 22.816-22.88 0-12.621-10.24-22.88-22.816-22.88h-30.044v-299.008h151.098c6.613 27.113 31.115 47.296 60.252 47.296 34.191 0 62.001-27.831 62.001-62.044 0-34.174-27.808-61.982-62.001-61.982-29.137 0-53.638 20.162-60.252 47.234h-165.843c-8.132 0-14.748 6.594-14.748 14.748v313.754h-68.068c-12.956 17.19-28.188 32.612-45.231 45.758h113.299v29.493h-162.831c-6.573 2.929-13.312 5.562-20.203 7.881v242.991c0 50.479 41.060 91.558 91.537 91.558 50.455 0 91.497-41.082 91.497-91.558v-36.951c0-8.154 6.615-14.748 14.748-14.748h108.16c17.907 0 32.486-14.62 32.486-32.55s-14.579-32.486-32.486-32.486h-180.233c-14.598 0-26.46 11.861-26.46 26.441v113.237c0 8.132-6.594 14.75-14.748 14.75-8.151 0-14.748-6.615-14.748-14.75v-113.237c0-30.842 25.092-55.953 55.955-55.953h180.23c34.172 0 61.98 27.81 61.98 62.001 0 34.214-27.81 62.044-61.98 62.044h-93.412v22.206c0 4.299-0.23 8.533-0.674 12.725l187.774 148.187 213.077-168.096v-257.719h-172.691v13.252c0 33.792-27.471 61.265-61.22 61.265h-166.266v-29.493h166.266c17.485 0 31.706-14.242 31.706-31.772v-244.002c0-8.154 6.613-14.748 14.748-14.748h49.824c14.577-0.002 26.441-11.883 26.441-26.462zM714.532 3.669c0-7.565 6.193-13.737 13.801-13.737 7.605 0 13.798 6.172 13.798 13.737 0 7.605-6.193 13.798-13.798 13.798-7.607 0-13.801-6.193-13.801-13.798z" />
<glyph unicode="&#xe973;" glyph-name="location" data-tags="location" d="M536.5 960c-101.802-0.135-199.395-40.635-271.38-112.62s-112.486-169.578-112.62-271.38c0-275.68 357.76-620.962 372.96-635.52 2.957-2.876 6.917-4.48 11.040-4.48s8.084 1.604 11.040 4.48c15.2 14.558 372.96 359.84 372.96 635.52-0.137 101.802-40.636 199.395-112.62 271.38s-169.578 112.485-271.38 112.62v0zM536.5 400c-34.809 0-68.838 10.322-97.78 29.661s-51.502 46.827-64.823 78.987c-13.321 32.16-16.806 67.547-10.016 101.687s23.554 65.501 48.167 90.115c24.614 24.614 55.974 41.376 90.115 48.167s69.528 3.306 101.687-10.016c32.16-13.321 59.647-35.879 78.987-64.823s29.661-62.971 29.661-97.78c-0.028-46.67-18.58-91.419-51.58-124.42s-77.751-51.552-124.42-51.58z" />
<glyph unicode="&#xe974;" glyph-name="marketing-agent" data-tags="marketing-agent" d="M512 448c141.384 0 256 114.616 256 256s-114.616 256-256 256c-141.384 0-256-114.615-256-256s114.616-256 256-256zM680.965 366.080l-35.84-317.44-81.92 245.76 51.2 66.56c10.24 15.36-5.12 35.84-25.6 35.84h-102.4c-20.48 0-30.72-20.48-25.6-35.84l46.080-66.56-81.92-245.76-40.96 332.8c-194.56-61.44-332.8-235.52-332.8-445.44h921.6c0 194.56-122.88 363.52-291.84 430.080zM307.205 38.4h-102.4v76.8c0 15.36 10.24 25.6 25.6 25.6h51.2c15.36 0 25.6-10.24 25.6-25.6v-76.8z" />
<glyph unicode="&#xe975;" glyph-name="money-bag" data-tags="money-bag" d="M392.001-64c88.483 0 156.991 8.469 211.945 25.782-1.164 6.249-1.946 12.639-1.946 19.219 0 29.391 12.218 55.922 31.749 74.999-19.53 19.079-31.749 45.61-31.749 75.001s12.218 55.922 31.749 75.001c-19.53 19.077-31.749 45.608-31.749 74.999s12.218 55.922 31.749 75.001c-19.53 19.077-31.749 45.61-31.749 74.999 0 34.721 17.14 65.322 43.194 84.445-17.843 16.337-36.906 30.978-56.906 43.86 8.127 10.235 13.712 22.619 13.712 36.696 0 33.14-26.859 59.999-59.999 59.999h-300.002c-33.14 0-59.999-26.859-59.999-59.999 0-14.047 5.57-26.391 13.649-36.61-116.469-75.031-195.648-210.897-195.648-353.389 0-242.025 224.57-270.001 392.001-270.001zM391.68 227.212c-49.634 0-90 40.367-90 90 0 39.18 25.311 72.234 60.321 84.568v44.221c0 16.577 13.421 29.999 30.001 29.999 16.577 0 29.999-13.421 29.999-29.999v-44.423c34.681-12.507 59.681-45.428 59.681-84.366 0-16.586-13.421-30.001-30.001-30.001-16.586 0-30.001 13.414-30.001 30.001 0 16.554-13.452 29.999-29.999 29.999-16.554 0-30.001-13.445-30.001-29.999 0-16.556 13.447-30.001 30.001-30.001 49.624 0 90-40.376 90-90 0-38.938-25-71.859-59.681-84.375v-26.836c0-16.577-13.421-30.001-29.999-30.001s-30.001 13.424-30.001 30.001v26.64c-35.009 12.33-60.321 45.391-60.321 84.571 0 16.577 13.414 30.001 30.001 30.001 16.577 0 29.999-13.424 29.999-30.001 0-16.554 13.447-30.001 30.001-30.001 16.547 0 29.999 13.447 29.999 30.001s-13.452 30.001-29.999 30.001zM979 26h-272c-24.851 0-45-20.15-45-45s20.15-45 45-45h272c24.851 0 45 20.15 45 45s-20.15 45-45 45zM979 176h-272c-24.851 0-45-20.15-45-45s20.15-45 45-45h272c24.851 0 45 20.15 45 45s-20.15 45-45 45zM979 326h-272c-24.851 0-45-20.147-45-45 0-24.851 20.15-45 45-45h272c24.851 0 45 20.15 45 45 0 24.853-20.15 45-45 45zM979 475.999h-272c-24.851 0-45-20.147-45-45 0-24.851 20.15-45 45-45h272c24.851 0 45 20.15 45 45 0 24.853-20.15 45-45 45zM476.477 900c-12.43 34.844-45.414 60-84.475 60-39.11 0-72.478-25.078-84.876-60h-95.125c-9.64 0-18.695-4.625-24.344-12.453-5.625-7.82-7.18-17.898-4.101-27.039l46.836-144.509h323.227l46.827 144.509c3.079 9.141 1.524 19.219-4.101 27.039-5.648 7.828-14.704 12.453-24.346 12.453h-95.523z" />
<glyph unicode="&#xe976;" glyph-name="nurse" data-tags="nurse" d="M271.67 383.59c47.274-19.293 96.696-32.831 147.2-40.32-0.808-2.462-2.104-4.736-3.807-6.686-1.704-1.953-3.782-3.542-6.111-4.675l103.359-102.558c17.848 17.257 88.676 85.841 104.96 101.76-2.825 0.919-5.392 2.504-7.48 4.62s-3.638 4.701-4.52 7.54c50.404 7.478 99.721 21.015 146.879 40.32 2.96 1.192 5.49 3.251 7.259 5.907 1.771 2.655 2.697 5.781 2.662 8.972v191.521c-16.27 2.299-32.363 5.72-48.161 10.24v-55.359c3.009-138.806-137.97-248.29-267.841-198.879-40.415 15.074-75.178 42.275-99.526 77.88s-37.087 77.868-36.473 120.997v48.801c-15.697 0.891-35.703 3.349-48.319 5.281v-200.481c0.019-3.177 0.966-6.281 2.73-8.925 1.764-2.646 4.264-4.715 7.189-5.953zM370.569 729.029c0.68-2.045 1.762-3.933 3.181-5.552 1.422-1.62 3.153-2.937 5.092-3.877s4.045-1.48 6.198-1.592c2.15-0.112 4.303 0.207 6.33 0.943 75.432 29.292 159.088 29.349 234.559 0.158 2.036-0.773 4.205-1.131 6.381-1.047 2.176 0.081 4.312 0.6 6.284 1.527s3.735 2.239 5.187 3.861c1.452 1.622 2.565 3.519 3.267 5.58 0 0 42.994 120.314 26.398 140-5.034 6.656-11.574 12.025-19.081 15.667s-15.772 5.457-24.118 5.292h-242.881c-31.639 0.943-60.183-28.637-49.599-59.52l32.801-101.44zM508.809 864.069c4.236-0.020 8.294-1.712 11.29-4.709 2.998-2.996 4.689-7.054 4.71-11.291v-12.96h12.8c4.24-0.009 8.304-1.698 11.304-4.696 2.998-2.999 4.687-7.063 4.696-11.304 0.026-3.695-1.24-7.283-3.577-10.146s-5.597-4.82-9.223-5.534c-1.943-0.663-13.75-0.172-16-0.32v-12.8c0-4.244-1.687-8.313-4.687-11.314s-7.070-4.686-11.313-4.686c-4.245 0-8.313 1.686-11.315 4.686-3 3.001-4.685 7.070-4.685 11.314v12.8c-2.292 0.171-14.11-0.316-16.161 0.32-3.887 0.793-7.338 3-9.688 6.194s-3.43 7.147-3.032 11.092c0.398 3.945 2.248 7.602 5.19 10.262s6.765 4.132 10.731 4.132h12.961v12.96c0.021 4.237 1.713 8.295 4.708 11.291 2.998 2.996 7.054 4.689 11.292 4.709zM574.729 664.39c-66.846-58.082-150.858-72.173-232.639-71.841v-47.681c-0.561-35.617 9.607-70.579 29.182-100.34s47.651-52.945 80.577-66.539c110.599-45.875 232.381 46.871 230.079 166.882l0.002 61.119c0 1.92-96.321 51.361-107.201 58.401zM314.712 625.829c82.36-4.538 182.239 6.181 246.879 70.239 2.697 2.651 6.235 4.278 10.003 4.599s7.531-0.682 10.638-2.839c16.584-15.842 132.48-72.785 179.842-75.515 3.337 29.94-0.773 60.241-11.967 88.211-11.194 27.968-29.126 52.737-52.198 72.106l-20.478-63.36c-2.036-6.218-5.318-11.955-9.644-16.863s-9.609-8.883-15.523-11.683c-5.914-2.8-12.337-4.366-18.874-4.601-6.54-0.237-13.058 0.861-19.158 3.228-66.313 25.635-139.699 26.203-206.399 1.599-6.721-3.191-14.064-4.862-21.504-4.887-7.438-0.028-14.792 1.585-21.537 4.727-20.848 8.401-43.999 87.68-43.999 87.68-20.545-18.272-36.571-41.061-46.815-66.576s-14.429-53.057-12.225-80.463c13.249-1.985 35.952-4.638 52.959-5.599zM503.047 193.51c-24.913 24.618-111.288 110.701-135.040 133.918-51.489-7.81-98.474-33.815-132.438-73.297-33.961-39.48-52.652-89.823-52.682-141.901v-90.24c0.013-4.24 1.702-8.304 4.7-11.301s7.060-4.687 11.3-4.699h346.559c-0.014 20.643 0.014 87.836 0 109.598 1.143 32.116-19.686 57.693-42.398 77.922zM408.967 157.030c-0.014-4.24-1.704-8.304-4.701-11.301s-7.061-4.687-11.299-4.699h-90.24c-4.245 0-8.313 1.685-11.315 4.685-3 3.002-4.685 7.070-4.685 11.315 0 4.243 1.685 8.313 4.685 11.313 3.002 3 7.070 4.687 11.315 4.687h90.24c4.238-0.014 8.301-1.704 11.299-4.701s4.687-7.061 4.701-11.299zM777.286 266.149c-32.216 32.6-74.063 53.974-119.361 60.961-0.64-1.441-122.88-120.32-122.88-120.32 13.163-11.299 23.754-25.283 31.067-41.014 7.315-15.73 11.178-32.84 11.334-50.188 0.023-21.923-0.016-88.611 0-109.598h247.68c4.24 0.012 8.301 1.701 11.299 4.699 3 2.998 4.689 7.061 4.701 11.301v90.24c0.088 28.605-5.511 56.944-16.47 83.368s-27.062 50.404-47.369 70.551z" />
<glyph unicode="&#xe977;" glyph-name="phone" data-tags="phone" d="M778.537 282.579c-33.456 33.029-75.222 33.029-108.465 0-25.359-25.144-50.717-50.289-75.649-75.86-6.819-7.031-12.572-8.523-20.883-3.835-16.409 8.95-33.882 16.195-49.651 25.997-73.518 46.24-135.102 105.692-189.654 172.603-27.063 33.242-51.143 68.828-67.977 108.889-3.409 8.097-2.77 13.425 3.836 20.030 25.359 24.505 50.077 49.65 75.009 74.795 34.735 34.947 34.735 75.86-0.212 111.020-19.818 20.030-39.636 39.635-59.453 59.665-20.457 20.457-40.701 41.126-61.372 61.37-33.456 32.603-75.222 32.603-108.465-0.213-25.572-25.144-50.077-50.928-76.075-75.646-24.080-22.801-36.226-50.715-38.783-83.319-4.049-53.059 8.95-103.136 27.276-151.933 37.505-101.005 94.614-190.716 163.87-272.969 93.548-111.233 205.21-199.241 335.837-262.738 58.813-28.553 119.759-50.5 186.031-54.127 45.603-2.56 85.238 8.951 116.989 44.535 21.735 24.294 46.242 46.455 69.257 69.683 34.091 34.517 34.304 76.284 0.427 110.379-40.491 40.7-81.19 81.187-121.892 121.674zM737.828 452.413l78.632 13.425c-12.36 72.237-46.455 137.656-98.237 189.65-54.765 54.764-124.021 89.284-200.309 99.939l-11.081-79.056c59.028-8.311 112.727-34.947 155.133-77.351 40.061-40.061 66.272-90.777 75.861-146.606zM860.757 794.206c-90.777 90.776-205.635 148.097-332.426 165.784l-11.081-79.056c109.531-15.343 208.833-64.992 287.252-143.197 74.372-74.368 123.166-168.34 140.855-271.689l78.635 13.425c-20.676 119.757-77.141 228.432-163.234 314.734z" />
<glyph unicode="&#xe978;" glyph-name="oxpins-icon-two-arrow-right" data-tags="oxpins-icon-two-arrow-left" d="M916.422 511.175h-710.679l213.903 213.897c3.859 3.73 6.936 8.187 9.054 13.118s3.234 10.235 3.277 15.597c0.049 5.368-0.975 10.687-3.007 15.656-2.032 4.964-5.028 9.48-8.823 13.274s-8.311 6.791-13.274 8.823c-4.969 2.032-10.289 3.056-15.656 3.007-5.363-0.043-10.666-1.159-15.597-3.277s-9.388-5.195-13.118-9.054l-282.883-282.883c-7.572-7.578-11.83-17.855-11.83-28.571s4.258-20.993 11.83-28.571l282.883-282.881c7.621-7.361 17.828-11.435 28.424-11.343s20.733 4.342 28.225 11.835c7.491 7.492 11.744 17.628 11.835 28.224s-3.983 20.804-11.339 28.426l-213.903 213.898h710.679c10.718 0 20.997 4.257 28.575 11.836s11.836 17.857 11.836 28.576c0 10.715-4.258 20.998-11.836 28.576s-17.857 11.835-28.575 11.835z" />
<glyph unicode="&#xe979;" glyph-name="oxpins-icon-two-arrow-up" data-tags="oxpins-icon-two-arrow-up" d="M575.175 43.578v710.679l213.897-213.903c3.73-3.859 8.187-6.936 13.118-9.054s10.235-3.234 15.597-3.277c5.368-0.049 10.687 0.975 15.656 3.007 4.964 2.032 9.48 5.028 13.274 8.823s6.791 8.311 8.823 13.274c2.032 4.969 3.056 10.289 3.007 15.656-0.043 5.363-1.159 10.666-3.277 15.597s-5.195 9.388-9.054 13.118l-282.883 282.883c-7.578 7.572-17.855 11.83-28.571 11.83s-20.993-4.258-28.571-11.83l-282.881-282.883c-7.361-7.621-11.435-17.828-11.343-28.424s4.342-20.733 11.835-28.225c7.492-7.491 17.628-11.744 28.224-11.835s20.804 3.983 28.426 11.339l213.898 213.903v-710.679c0-10.718 4.257-20.997 11.836-28.575s17.857-11.836 28.576-11.836c10.715 0 20.998 4.258 28.576 11.836s11.835 17.857 11.835 28.575z" />
<glyph unicode="&#xe97a;" glyph-name="oxpins-icon-two-arrow-down" data-tags="oxpins-icon-two-arrow-down" d="M448.825 852.422v-710.679l-213.897 213.903c-3.73 3.859-8.187 6.936-13.118 9.054s-10.235 3.234-15.597 3.277c-5.368 0.049-10.687-0.975-15.656-3.007-4.964-2.032-9.48-5.028-13.274-8.823s-6.791-8.311-8.823-13.274c-2.032-4.969-3.056-10.289-3.007-15.656 0.043-5.363 1.159-10.666 3.277-15.597s5.195-9.388 9.054-13.118l282.883-282.883c7.578-7.572 17.855-11.83 28.571-11.83s20.993 4.258 28.571 11.83l282.881 282.883c7.361 7.621 11.435 17.828 11.343 28.424s-4.342 20.733-11.835 28.225c-7.492 7.491-17.628 11.744-28.224 11.835s-20.804-3.983-28.426-11.339l-213.898-213.903v710.679c0 10.718-4.257 20.997-11.836 28.575s-17.857 11.836-28.576 11.836c-10.715 0-20.998-4.258-28.576-11.836s-11.835-17.857-11.835-28.575z" />
<glyph unicode="&#xe97b;" glyph-name="oxpins-icon-two-arrow-right1" data-tags="oxpins-icon-two-arrow-right" d="M107.578 384.825h710.679l-213.903-213.897c-3.859-3.73-6.936-8.187-9.054-13.118s-3.234-10.235-3.277-15.597c-0.049-5.368 0.975-10.687 3.007-15.656 2.032-4.964 5.028-9.48 8.823-13.274s8.311-6.791 13.274-8.823c4.969-2.032 10.289-3.056 15.656-3.007 5.363 0.043 10.666 1.159 15.597 3.277s9.388 5.195 13.118 9.054l282.883 282.883c7.572 7.578 11.83 17.855 11.83 28.571s-4.258 20.993-11.83 28.571l-282.883 282.881c-7.621 7.361-17.828 11.435-28.424 11.343s-20.733-4.342-28.225-11.835c-7.491-7.492-11.744-17.628-11.835-28.224s3.983-20.804 11.339-28.426l213.903-213.898h-710.679c-10.718 0-20.997-4.257-28.575-11.836s-11.836-17.857-11.836-28.576c0-10.715 4.258-20.998 11.836-28.576s17.857-11.835 28.575-11.835z" />
<glyph unicode="&#xe97c;" glyph-name="oxpins-icon-two-arrow-right-two" data-tags="oxpins-icon-two-arrow-right-two" d="M260.145 259.774l457.394 264.078-58.182-217.149c-1.1-3.831-1.426-7.847-0.956-11.806s1.722-7.786 3.686-11.256c1.965-3.474 4.6-6.516 7.752-8.958s6.762-4.233 10.612-5.264c3.853-1.032 7.873-1.286 11.825-0.747 3.952 0.535 7.756 1.855 11.192 3.88s6.432 4.71 8.822 7.908c2.386 3.193 4.111 6.834 5.074 10.703l76.952 287.179c2.059 7.691 0.978 15.887-3.004 22.784s-10.54 11.93-18.231 13.992l-287.179 76.949c-7.638 1.906-15.724 0.734-22.509-3.262s-11.727-10.498-13.767-18.105c-2.037-7.606-1.005-15.709 2.871-22.563 3.88-6.854 10.293-11.91 17.863-14.080l217.149-58.184-457.397-264.078c-6.898-3.982-11.931-10.543-13.993-18.235-2.061-7.695-0.982-15.891 3-22.79s10.542-11.931 18.236-13.995c7.694-2.059 15.892-0.982 22.79 3z" />
<glyph unicode="&#xe97d;" glyph-name="oxpins-icon-two-arrow-up-two" data-tags="oxpins-icon-two-arrow-up-two" d="M700.226 196.145l-264.078 457.394 217.149-58.182c3.831-1.1 7.847-1.426 11.806-0.956s7.786 1.722 11.256 3.686c3.474 1.965 6.516 4.6 8.958 7.752s4.233 6.762 5.264 10.612c1.032 3.853 1.286 7.873 0.747 11.825-0.535 3.952-1.855 7.756-3.88 11.192s-4.71 6.432-7.908 8.822c-3.193 2.386-6.834 4.111-10.703 5.074l-287.179 76.952c-7.691 2.059-15.887 0.978-22.784-3.004s-11.93-10.54-13.992-18.231l-76.949-287.179c-1.906-7.638-0.734-15.724 3.262-22.509s10.498-11.727 18.105-13.767c7.606-2.037 15.709-1.005 22.563 2.871 6.854 3.88 11.91 10.293 14.080 17.863l58.184 217.149 264.078-457.397c3.982-6.898 10.543-11.931 18.235-13.993 7.695-2.061 15.891-0.982 22.79 3s11.931 10.542 13.995 18.236c2.059 7.694 0.982 15.892-3 22.79z" />
<glyph unicode="&#xe97e;" glyph-name="oxpins-icon-two-arrow-left-two" data-tags="oxpins-icon-two-arrow-left-two" d="M763.855 636.226l-457.394-264.078 58.182 217.149c1.1 3.831 1.426 7.847 0.956 11.806s-1.722 7.786-3.686 11.256c-1.965 3.474-4.6 6.516-7.752 8.958s-6.762 4.233-10.612 5.264c-3.853 1.032-7.873 1.286-11.825 0.747-3.952-0.535-7.756-1.855-11.192-3.88s-6.432-4.71-8.822-7.908c-2.386-3.193-4.111-6.834-5.074-10.703l-76.952-287.179c-2.059-7.691-0.978-15.887 3.004-22.784s10.54-11.93 18.231-13.992l287.179-76.949c7.638-1.906 15.724-0.734 22.509 3.262s11.727 10.498 13.767 18.105c2.037 7.606 1.005 15.709-2.871 22.563-3.88 6.854-10.293 11.91-17.863 14.080l-217.149 58.184 457.397 264.078c6.898 3.982 11.931 10.543 13.993 18.235 2.061 7.695 0.982 15.891-3 22.79s-10.542 11.931-18.236 13.995c-7.694 2.059-15.892 0.982-22.79-3z" />
<glyph unicode="&#xe97f;" glyph-name="oxpins-icon-two-arrow-down-two" data-tags="oxpins-icon-two-arrow-down-two" d="M323.774 699.855l264.078-457.394-217.149 58.182c-3.831 1.1-7.847 1.426-11.806 0.956s-7.786-1.722-11.256-3.686c-3.474-1.965-6.516-4.6-8.958-7.752s-4.233-6.762-5.264-10.612c-1.032-3.853-1.286-7.873-0.747-11.825 0.535-3.952 1.855-7.756 3.88-11.192s4.71-6.432 7.908-8.822c3.193-2.386 6.834-4.111 10.703-5.074l287.179-76.952c7.691-2.059 15.887-0.978 22.784 3.004s11.93 10.54 13.992 18.231l76.949 287.179c1.906 7.638 0.734 15.724-3.262 22.509s-10.498 11.727-18.105 13.767c-7.606 2.037-15.709 1.005-22.563-2.871-6.854-3.88-11.91-10.293-14.080-17.863l-58.184-217.149-264.078 457.397c-3.982 6.898-10.543 11.931-18.235 13.993-7.695 2.061-15.891 0.982-22.79-3s-11.931-10.542-13.995-18.236c-2.059-7.694-0.982-15.892 3-22.79z" />
<glyph unicode="&#xe980;" glyph-name="oxpins-icon-two-check" data-tags="oxpins-icon-two-check" d="M995.43 528.79c-18.992 31.646-44.58 54.975-76.589 70.165 7.596 20.616 11.397 43.401 11.397 68.628 0 53.98-17.998 100.004-54.254 138.251-36.165 38.157-79.842 57.236-130.747 57.236-22.968 0-44.574-4.159-65.193-12.569-16.005 32.822-39.243 59.225-69.168 79.388-30.022 19.892-63.115 30.11-98.831 30.11s-68.809-10.217-98.829-30.381c-30.2-20.164-53.166-46.566-69.171-79.388-20.616 8.409-42.407 12.568-65.193 12.568-50.996 0-94.759-19.169-131.379-57.236-36.62-37.976-54.794-84.18-54.794-138.251 0-22.786 4.159-45.843 12.568-68.628-32.008-15.191-57.597-38.609-76.585-70.166-19.079-31.556-28.663-66.549-28.663-104.524 0-35.806 8.59-68.991 25.589-99.374 17.18-30.377 40.236-53.977 69.171-70.795-1.356-10.764-2.17-19.173-2.17-25.227 0-53.983 18.174-100.189 54.794-138.252 36.62-38.249 80.383-57.236 131.379-57.236 22.967 0 44.577 4.156 65.193 12.565 16.004-33.635 38.79-60.217 68.628-80.017 29.567-19.986 62.841-29.841 99.371-29.841 35.806 0 68.809 10.035 98.831 30.383 30.196 20.251 53.164 46.562 69.168 79.384 20.619-8.409 42.406-12.565 65.193-12.565 50.995 0 94.581 18.986 130.837 57.236 35.985 37.972 54.164 83.998 54.164 138.252 0 11.39-0.361 19.799-1.181 25.227 29.027 16.637 51.995 40.418 69.174 70.795 17.179 30.383 25.769 63.568 25.769 99.374 0.090 38.066-9.493 73.059-28.479 104.887zM701.657 586.387l-211.493-316.557c-6.781-12.3-16.998-17.179-30.381-17.36-6.781 0-13.834 2.168-20.616 6.776l-5.787 4.524-117.817 117.817c-6.781 7.053-10.217 15.643-10.217 25.769 0 10.398 3.436 18.989 10.217 25.77 7.595 6.781 16.185 10.398 26.222 10.76 9.765 0.452 18.627-3.165 26.222-10.76l85.808-85.629 186.173 280.030c5.969 8.409 14.017 13.201 23.962 14.829 9.764 1.447 18.986-0.361 27.395-5.787 8.409-5.244 13.384-13.020 15.372-22.786 1.903-9.765 0.271-18.988-5.060-27.397z" />
<glyph unicode="&#xe981;" glyph-name="oxpins-icon-two-comments" data-tags="oxpins-icon-two-comments" d="M606.784 837.214c-63.59 39.22-138.944 60.786-216.784 60.786-211.892 0-390-157.866-390-360 0-70.87 22.016-138.808 63.836-197.482l-58.42-183.411c-6.172-19.373 8.34-39.104 28.59-39.104 4.63 0 9.29 1.069 13.59 3.258l177.664 90.33c7.194-3.098 14.478-5.978 21.836-8.653-41.133 64.205-63.096 137.902-63.096 215.062 0 229.794 193.356 406.456 422.784 419.214zM960.166 220.518c41.818 58.675 63.834 126.612 63.834 197.482 0 202.208-178.182 360-390 360-211.892 0-390-157.866-390-360 0-202.211 178.184-360.003 390-360.003 56.835 0 113.462 11.584 164.733 33.6l177.67-90.336c10.784-5.485 23.808-3.955 33.024 3.878s12.832 20.442 9.158 31.968l-58.419 183.411zM512 388c-16.568 0-30 13.432-30 30s13.432 30 30 30c16.568 0 30-13.432 30-30s-13.432-30-30-30zM632 388c-16.568 0-30 13.432-30 30s13.432 30 30 30c16.57 0 30.003-13.432 30.003-30s-13.434-30-30.003-30zM752 388c-16.57 0-30.003 13.432-30.003 30s13.434 30 30.003 30c16.57 0 30.003-13.432 30.003-30s-13.434-30-30.003-30z" />
<glyph unicode="&#xe982;" glyph-name="oxpins-icon-two-diet" data-tags="oxpins-icon-two-diet" d="M498.602 93.997h-166.603v60h150.938c-3.258 18.681-5.296 38.64-5.86 60h-145.078v60h151.345c5.555 21 14.593 41.524 26.718 60.477h-178.063v60h180.423v-56.399c5.5 8.267 11.6 16.219 18.233 23.742 17.462 19.759 37.602 35.539 59.906 46.885 25.157 12.796 51.72 19.295 78.961 19.295 19.251 0 37.501-2.414 54.477-7.101v355.665h-120v-141.218h-479.999v141.218h-120v-840.562h601.311c-31.328 31.288-79.124 80.242-106.709 157.999zM332 514.748h180.423v-60h-180.423v60zM271.999 93.997h-60v60h60v-60zM271.999 213.997h-60v60h60v-60zM271.999 333.333h-60v60h60v-60zM271.999 454.748h-60v60h60v-60zM543.999 776.56v59.156h-85.203v28.141c0 25.672-10 49.812-28.162 67.969-18.165 18.164-42.306 28.172-67.977 28.172-53.008 0-96.133-43.125-96.133-96.141v-28.141h-82.524v-140.374h359.999v81.218zM398.798 835.716h-72.282v28.141c0 19.93 16.211 36.141 36.141 36.141 9.64 0 18.718-3.766 25.546-10.594 6.836-6.836 10.595-15.906 10.595-25.547v-28.141zM976.695 329.63c-24.798 24.749-57.235 38.369-91.368 38.369-0.086 0-0.171 0-0.257 0-27.938-0.056-54.017-8.213-75.728-22.102v9.444c0 34.549 28.11 62.656 62.656 62.656v60c-67.632 0-122.656-55.022-122.656-122.656v-9.438c-7.914 5.047-16.397 9.343-25.343 12.767v0.148c-15.594 6.742-33.899 9.18-54.477 9.18-73.523 0-132.625-75.001-132.625-142.119 0-146.539 80.242-216.265 121.883-258.499 17.118-17.383 37.282-31.382 61.501-31.382 1.241 0 2.483 0.1 3.718 0.257v0.196c0.351-0.008 0.704-0.017 1.055-0.031 0.531 0.086 1.070 0.148 1.601 0.257v-0.282c6.829 0.040 13.697 1.36 20.43 3.939h0.008c18.741 7.178 39.163 7.492 57.507 0.899 8.946-3.212 18.282-4.844 27.759-4.844 26.969 0 52.546 12.539 73.968 36.273 4.508 4.993 9.461 10.219 14.704 15.742 42.429 44.743 100.538 106.007 100.538 226.734 0 44.954-15.937 85.617-44.874 114.492z" />
<glyph unicode="&#xe983;" glyph-name="oxpins-icon-two-donate" data-tags="oxpins-icon-two-donate" d="M613.375 136.916l42.454-25.468c22.144-13.312 47.446-20.312 73.087-20.312 47.613 0 91.777 23.676 118.233 63.32 6.656 9.984 11.776 20.604 15.696 31.568 24.664-26.917 39.088-62.501 39.088-100.688 0-82.352-66.992-149.336-149.336-149.336-82.348 0-149.334 66.984-149.334 149.336 0 17.788 3.882 35.116 10.112 51.58zM104.216 830.288l298.664 127.999c8.79 3.754 19.030 1.194 25.046-6.272l85.334-106.665c4.010-5.034 5.546-11.606 4.182-17.92-1.366-6.314-5.504-11.606-11.306-14.506l-322.26-161.109c-9.046-4.522-18.688-6.826-28.586-6.826-16.426 0-32.639 6.57-44.543 18.048-12.544 12.118-19.498 28.458-19.498 45.994v101.631c0.040 8.576 5.119 16.256 12.968 19.626zM773.932 99.372v-56.708c0-11.776-9.56-21.328-21.336-21.328s-21.335 9.552-21.335 21.328v48.728c14.803 0.256 28.971 3.372 42.671 7.98zM203.021 613.629l358.783 179.411 213.079-79.914c22.484-8.406 41.684-24.406 54.053-45.014l88.576-147.626c18.856-31.446 20.356-69.801 3.928-102.569l-62.844-125.695c-11.483 26.326-29.996 47.702-54.060 61.482-31.744 18.218-55.896 32.767-74.454 44.543 0.938 0.554 1.619 1.536 2.599 2.006 3.84 23.296 15.192 43.862 25.944 58.922-32.639 14.038-76.287 39.338-98.431 65.151-17.024-9.984-43.818-22.826-77.311-29.398 24.918-30.848 50.304-69.034 59.519-94.463 7.808-3.542 19.456-9.6 37.418-20.010 22.527-15.786 55.128-35.968 103.512-63.786 21.84-12.544 37.12-34.858 43.045-62.806 1.28-6.016 1.792-12.032 1.968-18.048 0.037-1.92-0.132-3.798-0.176-5.718-0.124-4.183-0.468-8.323-1.148-12.455-0.344-2.048-0.724-4.059-1.156-6.107-0.936-4.096-2.172-8.148-3.621-12.112-0.644-1.755-1.2-3.504-1.924-5.252-2.392-5.544-5.164-11.008-8.616-16.128-4.052-6.1-8.96-11.308-13.992-16.216-3.072-2.853-6.363-5.456-9.728-7.892-1.668-1.236-3.372-2.392-5.083-3.54-19.156-12.032-42.196-17.364-64.765-15.236-2.774 0.3-5.59 0.556-8.362 1.112-3.67 0.68-7.296 1.536-10.88 2.648-7.168 2.304-14.294 4.952-21.034 9.004l-146.601 87.933c-22.954 5.59-137.002 39.722-223.401 179.497-50.474 81.622-84.438 151.338-105.002 198.101 0.038 0.13 0.080 0.174 0.166 0.174z" />
<glyph unicode="&#xe984;" glyph-name="oxpins-icon-two-elder" data-tags="oxpins-icon-two-elder" d="M647.554 736c-21.501 0-42.578 5.987-60.868 17.291s-33.071 27.478-42.686 46.709c-40.979-40.978-96.557-64-154.508-64h-37.492v-128c0-42.435 16.857-83.131 46.863-113.137s70.703-46.863 113.137-46.863c42.435 0 83.131 16.857 113.137 46.863s46.863 70.703 46.863 113.137v128h-24.446zM495.999 623.999c0 4.244 1.687 8.313 4.687 11.314s7.070 4.687 11.314 4.687 8.313-1.685 11.314-4.687c3-3 4.687-7.070 4.687-11.314v-31.999c0-4.244-1.687-8.313-4.687-11.314s-7.070-4.687-11.314-4.687-8.313 1.685-11.314 4.687c-3 3-4.687 7.070-4.687 11.314v31.999zM431.999 640c-3.164 0-6.257 0.938-8.888 2.696s-4.683 4.257-5.892 7.181c-1.211 2.923-1.529 6.141-0.911 9.244s2.142 5.955 4.38 8.192c2.237 2.238 5.088 3.762 8.192 4.38s6.321 0.3 9.244-0.911c2.924-1.21 5.423-3.261 7.181-5.892s2.696-5.724 2.696-8.888c0-4.244-1.685-8.313-4.687-11.314-3-3.002-7.070-4.687-11.314-4.687zM545.938 521.374c-9.007-8.989-21.213-14.038-33.938-14.038s-24.93 5.048-33.938 14.038c-2.937 3.013-4.57 7.063-4.542 11.271 0.026 4.209 1.71 8.236 4.686 11.213 2.975 2.975 7.004 4.659 11.213 4.686 4.207 0.026 8.256-1.606 11.27-4.544 3.003-2.994 7.071-4.675 11.312-4.675s8.309 1.681 11.312 4.675c1.479 1.517 3.243 2.725 5.193 3.553s4.043 1.264 6.162 1.277 4.217-0.394 6.178-1.198c1.959-0.805 3.739-1.989 5.237-3.487s2.683-3.278 3.487-5.238c0.805-1.959 1.213-4.059 1.198-6.178-0.013-2.118-0.446-4.212-1.276-6.162-0.829-1.949-2.038-3.714-3.553-5.193zM592.001 640c-3.166 0-6.258 0.938-8.89 2.696s-4.683 4.257-5.892 7.181c-1.211 2.923-1.529 6.141-0.911 9.244 0.617 3.104 2.142 5.955 4.38 8.192s5.088 3.762 8.192 4.38c3.103 0.617 6.321 0.3 9.244-0.911 2.924-1.21 5.423-3.261 7.181-5.892s2.696-5.724 2.696-8.888c0-4.244-1.685-8.313-4.687-11.314-3-3.002-7.070-4.687-11.312-4.687zM720.001 720.001c0 55.164-21.915 108.070-60.922 147.077-39.009 39.008-91.914 60.922-147.079 60.922s-108.070-21.914-147.079-60.922c-39.007-39.008-60.921-91.913-60.922-147.077 0.001-6.789 0.37-13.489 1.011-20.11 4.863 1.638 9.889 2.746 14.99 3.302v32.807c0 8.487 3.372 16.627 9.373 22.627s14.14 9.373 22.627 9.373h37.484c24.504-0.066 48.779 4.728 71.418 14.106s43.192 23.153 60.472 40.527c6.002 5.998 14.14 9.368 22.626 9.366 1.714 0.002 3.427-0.137 5.12-0.414 5.006-0.814 9.746-2.805 13.831-5.809s7.401-6.936 9.669-11.471c6.913-13.95 17.598-25.682 30.841-33.867s28.517-12.494 44.085-12.439h24.453c8.487 0 16.627-3.372 22.627-9.373s9.373-14.14 9.373-22.627v-32.8c5.101-0.556 10.127-1.662 14.99-3.3 0.641 6.612 1.011 13.312 1.011 20.101zM758.525 596.999c-6.058-10.903-14.852-20.040-25.517-26.507-10.664-6.469-22.831-10.045-35.3-10.378-7.022-27.404-20.027-52.913-38.080-74.692 15.139-5.926 31.731-7.061 47.537-3.256 15.805 3.805 30.062 12.37 40.844 24.535 10.784 12.167 17.573 27.348 19.453 43.497s-1.239 32.484-8.938 46.801zM448 427.2v-11.2c0-16.974 6.742-33.252 18.745-45.255s28.281-18.745 45.255-18.745c16.974 0 33.252 6.742 45.255 18.745s18.745 28.281 18.745 45.255v11.2c-41.359-14.936-86.641-14.936-128 0zM736.001 632c0.001 9.222-3.182 18.16-9.014 25.303s-13.951 12.052-22.986 13.897v-63.2c0-5.155-0.373-10.218-0.772-15.272 9.193 1.681 17.506 6.529 23.493 13.704s9.272 16.223 9.279 25.568zM320.001 671.2c-9.098-1.849-17.268-6.807-23.107-14.024s-8.983-16.244-8.893-25.527c0.092-9.283 3.413-18.246 9.393-25.347 5.982-7.101 14.248-11.899 23.381-13.567-0.401 5.047-0.774 10.11-0.774 15.265v63.2zM749.296 99.24l-28.81-115.241h127.507v160.001h-90.807c-1.616-15.082-4.253-30.035-7.891-44.761zM266.806 144.001h-90.807v-160.001h127.508l-28.81 115.241c-3.64 14.725-6.276 29.678-7.892 44.761zM720.249 245.953l-10.597 48.219c-0.848 4.119-0.039 8.409 2.251 11.937s5.878 6.012 9.985 6.915c4.109 0.904 8.407 0.152 11.966-2.090s6.091-5.797 7.048-9.893l10.597-48.211c5.544-25.224 8.16-51.004 7.797-76.829h88.703v29.601c0 46.387-15.506 91.443-44.054 128.006-28.546 36.563-68.497 62.534-113.499 73.785l-82.448 20.609v-12c0-25.461-10.114-49.879-28.118-67.882s-42.421-28.118-67.882-28.118c-25.461 0-49.879 10.114-67.882 28.118s-28.118 42.421-28.118 67.882v12l-82.448-20.612c-45.002-11.249-84.951-37.221-113.499-73.784-28.548-36.561-44.052-81.617-44.054-128.004v-29.601h88.703c-0.363 25.825 2.253 51.605 7.797 76.829l10.597 48.211c0.957 4.096 3.489 7.651 7.048 9.893s7.857 2.994 11.966 2.090c4.108-0.903 7.696-3.387 9.985-6.915 2.291-3.528 3.1-7.818 2.251-11.937l-10.597-48.219c-10.083-45.874-9.399-93.46 1.998-139.027l30.745-122.927h351.013l30.745 122.927c11.397 45.567 12.082 93.153 1.998 139.027z" />
<glyph unicode="&#xe985;" glyph-name="oxpins-icon-two-elderly" data-tags="oxpins-icon-two-elderly" d="M572.021 780c49.706 0 89.999 40.294 89.999 90s-40.293 90-89.999 90c-49.706 0-90.001-40.294-90.001-90s40.295-90 90.001-90zM512.025 419.999c16.58 0 29.999 13.419 29.999 30.001v120c0 27.215 5.567 53.641 16.553 78.516l8.671 19.688c12.89-19.573 29.637-36.434 49.98-48.195-9.609-14.294-15.205-31.522-15.205-50.009v-120c0-16.583 13.419-30.001 30.001-30.001 16.58 0 29.999 13.419 29.999 30.001v120c0 16.551 13.448 29.999 30.001 29.999 16.58 0 29.999 13.419 29.999 30.001s-13.419 29.999-29.999 29.999c-40.638 0-74.67 27.247-85.811 64.301-11.030-2.593-22.382-4.301-34.189-4.301-61.804 0-114.939 37.602-137.887 91.106-0.073-0.124-0.176-0.22-0.251-0.344-1.551-2.784-2.986-5.566-4.246-8.438l-35.742-81.035c-21.153-47.959-31.878-98.877-31.878-151.291v-120c0-16.583 13.419-29.999 30.001-29.999s29.999 13.416 29.999 29.999v89.999h60v-89.999c0.004-16.58 13.423-29.999 30.005-29.999zM480.001 266v-300.001c0-16.578-13.421-29.999-30.001-29.999h-180c-16.58 0-29.999 13.421-29.999 29.999v102.141l-167.261 145.22c-46.2 39.861-72.74 97.56-72.74 158.221v284.419c0 33.14 26.86 60 60 60s60-26.86 60-60v-270c0-29.941 15.080-57.9 40.32-74.7l152.98-102.601c13.78-9.3 32.461-5.5 41.599 8.2 9.241 13.74 5.561 32.379-8.2 41.599l-133.638 93.040c-27.581 18.781-34.481 56.46-15.341 83.801 18.72 26.741 55.419 33.52 82.48 15.281l159.42-109.861c25.299-16.86 40.381-44.82 40.381-74.76zM1024 655.999v-284.419c0-60.661-26.54-118.36-72.74-158.221l-167.261-145.22v-102.141c0-16.499-13.279-29.859-29.74-29.999 0 0-97.28 0-180.26 0-16.58 0-30.001 13.421-30.001 29.999v300.001c0 29.941 15.101 57.9 40.381 74.76l159.42 109.861c27.061 18.24 63.76 11.46 82.48-15.281 19.14-27.341 12.24-65.020-15.341-83.801l-133.638-93.040c-13.761-9.22-17.441-27.859-8.2-41.599 9.18-13.74 27.859-17.479 41.599-8.2l152.979 102.601c25.241 16.8 40.321 44.759 40.321 74.7v270c0 33.14 26.86 60 60 60s60-26.86 60-60z" />
<glyph unicode="&#xe986;" glyph-name="oxpins-icon-two-heart" data-tags="oxpins-icon-two-heart" d="M447.377 898.283c-11.428 10.072-23.205 19.138-35.855 26.921l-273.753-640.424c9.684-12.728 19.977-25.547 30.882-38.55l278.726 652.052zM505.25 836.017c-10.643 13.003-21.112 25.364-31.668 36.628l-280.122-655.258c10.294-11.537 21.112-23.258 32.365-35.070l279.424 653.7zM381.004 940.954c-12.912 5.494-26.782 9.798-41.787 13.003l-253.601-593.266c8.811-14.376 18.408-28.936 28.702-43.678l266.687 623.942zM1024.008 666.068c-2.182 28.020-6.892 53.842-13.351 77.833l-260.58-609.843c31.58 30.405 60.017 60.072 85.405 88.915l188.526 441.172v1.923zM304.019 958.81c-8.724 0.733-17.709 1.19-27.218 1.19-6.456 0-13.086-0.183-19.89-0.549l-217.834-509.482c7.241-17.031 15.616-34.429 25.125-52.102l239.817 560.943zM632.737 936.284c-25.561-12.362-47.632-29.118-68.569-49.446l-312.4-731.079c10.73-10.713 21.984-21.512 33.499-32.5l347.469 813.026zM21.724 496.302l196.285 459.211c-18.233-3.113-36.727-9.065-54.96-17.672l-158.511-370.94c3.751-22.892 9.334-46.333 17.186-70.598zM917.772 328.55c58.533 86.44 89.679 165.37 101.541 237.709l-101.541-237.709zM111.752 904.785c-57.141-47.524-103.203-126.821-111.752-238.717v-22.708l111.752 261.425zM688.768 77.745l305.418 714.594c-7.672 17.948-16.486 34.338-26.254 49.355l-353.317-826.579c26.259 21.244 50.861 42.118 74.153 62.629zM944.207 873.377c-10.555 12.27-21.725 23.075-33.414 32.689l-410.716-961.095c4.013-3.017 7.939-5.947 11.952-8.972 16.052 11.815 31.406 23.442 46.585 35.068l385.594 902.309zM809.913 954.964c-5.498 1.099-10.988 2.014-16.4 2.564-10.12 1.007-19.717 1.557-29.051 2.014l-391.001-914.762c11.341-9.61 23.031-19.228 34.982-28.932l401.469 939.115zM882.271 926.303c-12.824 7.875-26.002 14.193-39.172 19.138l-406.791-951.75c11.603-9.161 23.467-18.314 35.593-27.561l410.37 960.174zM727.253 959.451c-18.407-1.007-35.070-3.663-50.511-7.417l-364.742-853.407c11.079-10.075 22.508-20.236 34.372-30.492l380.881 891.315z" />
<glyph unicode="&#xe987;" glyph-name="oxpins-icon-two-medical" data-tags="oxpins-icon-two-medical" d="M773.193 375.026c8.765-20.234 13.865-44.995 14.991-73.626 29.583-6.779 51.722-33.239 51.722-64.84 0-36.7-29.86-66.56-66.56-66.56s-66.56 29.86-66.56 66.56c0 31.242 21.658 57.426 50.719 64.584-1.28 28.436-8.079 71.7-35.912 93.061-14.203 3.676-28.805 6.339-43.786 7.711-1.106-49.818-165.765-172.759-165.765-172.759s-164.71 122.921-165.827 172.739c-16.64-1.516-32.829-4.557-48.466-8.94-20.306-16.077-30.812-46.029-31.355-89.569 5.97-3.43 10.793-8.786 13.752-15.268 21.873-10.332 41.196-32.061 55.992-62.996 2.478-5.202 2.806-11.080 0.983-16.445 8.868-22.825 13.937-47.77 13.937-68.721 0-29.358 0-57.119-32-64.246-3.461-2.877-7.803-4.465-12.36-4.465h-21.381c-10.721 0-19.446 8.745-19.446 19.436l0.020 0.758c0.41 10.342 9.062 18.688 19.425 18.688h21.381c2.191 0 4.332-0.369 6.4-1.085 1.29 0.358 1.7 0.655 1.71 0.666 2.376 4.219 2.376 21.791 2.376 30.228 0 17.019-4.26 37.571-11.725 56.668-3.871 2.202-7.004 5.53-8.929 9.554-12.964 27.146-30.597 44.677-44.913 44.677-14.643 0-33.157-18.964-46.070-47.145-2.109-4.598-5.806-8.335-10.353-10.578-6.748-18.268-10.455-37.079-10.455-53.166 0-7.086 0-25.887 2.703-30.31 0.031 0 0.635-0.369 2.335-0.788 2.212 0.85 4.588 1.29 6.963 1.29h21.422c9.984 0 18.33-7.598 19.333-17.48l0.102-1.198c0-11.479-8.724-20.224-19.436-20.224h-21.422c-4.25 0-8.356 1.423-11.735 4.004-12.237 2.304-20.86 7.7-26.317 16.486-6.615 10.619-7.823 24.566-7.823 48.22 0 20.746 4.792 44.646 13.496 67.471-1.28 4.884-0.85 9.984 1.28 14.582 9.063 19.825 20.593 36.803 33.332 49.080 7.004 6.748 14.531 12.175 22.405 16.138 2.949 6.902 8.069 12.564 14.326 16.138 0.328 27.29 4.526 50.852 12.288 70.277-88.863-45.076-149.761-137.267-149.761-243.732 0-136.049 99.4-142.705 229.52-142.705 14.203 0 28.744 0.082 43.602 0.082h281.262c14.838 0 29.379-0.082 43.581-0.082 130.14 0 229.581 6.656 229.581 142.705-0.010 107.592-62.208 200.591-152.586 245.125zM512.077 366.162c125.788 0 227.748 189.143 227.748 314.921 0 125.757-101.96 227.717-227.748 227.717-125.768 0-227.727-101.96-227.727-227.717 0-125.778 101.96-314.921 227.727-314.921zM773.337 205.843c16.966 0 30.72 13.754 30.72 30.72s-13.754 30.72-30.72 30.72c-16.966 0-30.72-13.754-30.72-30.72s13.754-30.72 30.72-30.72z" />
<glyph unicode="&#xe988;" glyph-name="oxpins-icon-two-quote" data-tags="oxpins-icon-two-quote" d="M812.731 478.191l79.029 421.868h-60.603l-258.686-552.484c-2.701-5.371-5.354-10.789-7.675-16.399-11.798-28.627-18.383-59.984-18.383-92.975 0-133.493 106.936-241.67 238.791-241.67 131.903 0 238.791 108.225 238.791 241.67 0 124.047-92.347 226.133-211.263 239.991zM266.316 478.191l79.028 421.868h-60.645l-258.689-552.484c-2.701-5.371-5.354-10.789-7.675-16.399-11.75-28.627-18.336-59.984-18.336-92.927 0-133.493 106.934-241.67 238.79-241.67 131.903 0 238.79 108.225 238.79 241.67 0 123.999-92.341 226.085-211.263 239.942z" />
<glyph unicode="&#xe989;" glyph-name="oxpins-icon-two-resident" data-tags="oxpins-icon-two-resident" d="M1009.332 84.185c0 0-9.548 0-12.726 0-6.969 0-6.969 8.245-6.969 8.245v576.856c0 14.522-11.885 26.403-26.403 26.403 0 0-153.194 0-204.259 0-7.334 0-6.945 6.953-6.945 6.953v111.206c0 1.1 0.621 2.335 4.27 2.335 8.067 0 14.668 6.601 14.668 14.668v26.054c0 8.068-6.601 14.668-14.668 14.668h-474.282c-8.067 0-14.668-6.601-14.668-14.668v-26.054c0-8.068 6.601-14.668 14.668-14.668 4.262 0 4.272-3.82 4.272-4.263v-106.715c0 0 0.723-9.519-5.511-9.519-55.151 0-220.594 0-220.594 0-14.522 0-26.403-11.88-26.403-26.403 0 0 0-434.016 0-578.689 0-5.501-2.981-6.414-9.001-6.414-7.786 0-10.112 0-10.112 0-8.068 0-14.669-6.601-14.669-14.668v-30.419c0-8.069 6.601-14.67 14.669-14.67h994.664c8.067 0 14.668 6.601 14.668 14.67v30.419c0 8.071-6.601 14.672-14.668 14.672zM575.228 569.203h87.788c6.457 0 11.735-5.28 11.735-11.735v-87.79c0-6.455-5.278-11.735-11.735-11.735h-87.788c-6.457 0-11.735 5.28-11.735 11.735v87.79c0 6.455 5.278 11.735 11.735 11.735zM563.493 623.659v87.792c0 6.453 5.278 11.735 11.735 11.735h87.788c6.457 0 11.735-5.282 11.735-11.735v-87.792c0-6.455-5.278-11.735-11.735-11.735h-87.788c-6.457 0-11.735 5.28-11.735 11.735zM575.228 420.649h87.788c6.457 0 11.735-5.28 11.735-11.735v-87.792c0-6.453-5.278-11.735-11.735-11.735h-87.788c-6.457 0-11.735 5.282-11.735 11.735v87.792c0 6.451 5.278 11.735 11.735 11.735zM588.255 244.15c6.451 0 11.735-5.28 11.735-11.735v-135.932c0-6.455-5.284-11.735-11.735-11.735h-135.932c-6.451 0-11.735 5.28-11.735 11.735v135.932c0 6.455 5.284 11.735 11.735 11.735h135.932zM474.976 623.659c0-6.455-5.28-11.735-11.735-11.735h-87.792c-6.453 0-11.733 5.28-11.733 11.735v87.792c0 6.453 5.28 11.735 11.733 11.735h87.792c6.455 0 11.735-5.282 11.735-11.735v-87.792zM375.45 569.203h87.792c6.455 0 11.735-5.28 11.735-11.735v-87.79c0-6.455-5.28-11.735-11.735-11.735h-87.792c-6.453 0-11.733 5.28-11.733 11.735v87.79c0 6.455 5.28 11.735 11.733 11.735zM375.45 420.649h87.792c6.455 0 11.735-5.28 11.735-11.735v-87.792c0-6.453-5.28-11.735-11.735-11.735h-87.792c-6.453 0-11.733 5.282-11.733 11.735v87.792c0 6.451 5.28 11.735 11.733 11.735zM786.592 560.181c0 6.455 5.284 11.735 11.735 11.735h87.796c6.451 0 11.733-5.28 11.733-11.735v-87.79c0-6.455-5.282-11.735-11.733-11.735h-87.796c-6.451 0-11.735 5.28-11.735 11.735v87.79zM786.592 406.198c0 6.453 5.284 11.735 11.735 11.735h87.796c6.451 0 11.733-5.282 11.733-11.735v-87.792c0-6.455-5.282-11.735-11.733-11.735h-87.796c-6.451 0-11.735 5.28-11.735 11.735v87.792zM786.592 257.647c0 6.453 5.284 11.735 11.735 11.735h87.796c6.451 0 11.733-5.282 11.733-11.735v-87.792c0-6.455-5.282-11.735-11.733-11.735h-87.796c-6.451 0-11.735 5.28-11.735 11.735v87.792zM125.563 560.181c0 6.455 5.281 11.735 11.735 11.735h87.792c6.453 0 11.735-5.28 11.735-11.735v-87.79c0-6.455-5.282-11.735-11.735-11.735h-87.792c-6.454 0-11.735 5.28-11.735 11.735v87.79zM125.563 406.198c0 6.453 5.281 11.735 11.735 11.735h87.792c6.453 0 11.735-5.282 11.735-11.735v-87.792c0-6.455-5.282-11.735-11.735-11.735h-87.792c-6.454 0-11.735 5.28-11.735 11.735v87.792zM125.563 257.647c0 6.453 5.281 11.735 11.735 11.735h87.792c6.453 0 11.735-5.282 11.735-11.735v-87.792c0-6.455-5.282-11.735-11.735-11.735h-87.792c-6.454 0-11.735 5.28-11.735 11.735v87.792z" />
</font>
</defs>
</svg>
